[ create a new paste ] login | about

Link: http://codepad.org/UJHanDHd    [ raw code | fork ]

Plain Text, pasted on Jan 9:
foobar2000 1.5 / Dynamic Range Meter 1.1.1
log date: 2020-01-09 23:04:39

--------------------------------------------------------------------------------
Analyzed: Al Di Meola / Telarc Jazz SACD Sampler 3 (1)
          Gerry Mulligan / Telarc Jazz SACD Sampler 3 (2)
          Hiromi / Telarc Jazz SACD Sampler 3 (3)
          Jacques Loussier Trio / Telarc Jazz SACD Sampler 3 (4)
          John Pizzarelli Trio / Telarc Jazz SACD Sampler 3 (5)
          McCoy Tyner, Bobby Hutcherson, Charnett Moffett, Eric Harland / Telarc Jazz SACD Sampler 3 (6)
          Michel Camilo / Telarc Jazz SACD Sampler 3 (7)
          Monty Alexander / Telarc Jazz SACD Sampler 3 (8)
          Ray Brown, John Clayton, Christian McBride / Telarc Jazz SACD Sampler 3 (9)
          Ray Brown, Monty Alexander, Russell Malone / Telarc Jazz SACD Sampler 3 (10)
          Tierney Sutton / Telarc Jazz SACD Sampler 3 (11)
--------------------------------------------------------------------------------

DR         Peak         RMS     Duration Track
--------------------------------------------------------------------------------
DR11      -5.06 dB   -19.06 dB      9:27 01-Zona Desperata
DR13      -0.95 dB   -20.30 dB      5:38 03-Oh, Mr. Sauter? Yes, Mr. Finegan?
DR14      -0.01 dB   -18.88 dB      8:37 10-Another Mind
DR13      -1.82 dB   -23.67 dB      3:37 09-Air On A G String
DR14      -0.24 dB   -22.69 dB      8:26 08-I Like Jersey Best
DR13      -1.39 dB   -21.22 dB      7:48 06-If I Were A Bell
DR16      -1.08 dB   -27.37 dB      4:47 07-Tequila
DR13      -3.00 dB   -20.45 dB      7:10 11-Battle Hymn of the Republic (Glory Hallelujah)
DR17      -1.68 dB   -23.47 dB      6:21 04-Papa Was A Rolling Stone
DR12      -0.18 dB   -20.31 dB      4:52 02-Django
DR11      -1.92 dB   -19.01 dB      4:13 05-Alone Together
--------------------------------------------------------------------------------

Number of tracks:  11
Official DR value: DR13

Samplerate:        88200 Hz
Channels:          6
Bits per sample:   24
Bitrate:           6719 kbps
Codec:             FLAC
================================================================================




Create a new paste based on this one


Comments: