[ create a new paste ] login | about

Link: http://codepad.org/UJvkFKzy    [ raw code | fork ]

Plain Text, pasted on Dec 5:
[CUETools log; Date: 12/4/2016 3:43:22 PM; Version: 2.1.5]
[CTDB TOCID: Vfs_RQdXK9nW9Wd41BpVn1NDoBg-] found.
Track | CTDB Status
  1   | (70/71) Accurately ripped
  2   | (70/71) Accurately ripped
  3   | (70/71) Accurately ripped
  4   | (71/71) Accurately ripped
  5   | (70/71) Accurately ripped
  6   | (70/71) Accurately ripped
  7   | (70/71) Accurately ripped
  8   | (70/71) Accurately ripped
  9   | (70/71) Accurately ripped
 10   | (70/71) Accurately ripped
 11   | (68/71) Accurately ripped
 12   | (70/71) Accurately ripped
 13   | (70/71) Accurately ripped
 14   | (70/71) Accurately ripped
 15   | (70/71) Accurately ripped
 16   | (70/71) Accurately ripped
 17   | (69/71) Accurately ripped
 18   | (70/71) Accurately ripped
 19   | (70/71) Accurately ripped
 20   | (69/71) Accurately ripped
 21   | (67/71) Accurately ripped
[AccurateRip ID: 0037f78d-035deea4-4a115515] found.
Track   [  CRC   |   V2   ] Status
 01     [61d73a51|4c23ee64] (000+005/113) Accurately ripped
 02     [13efe86a|d475d342] (000+005/116) Accurately ripped
 03     [072d0b22|c81ab832] (000+005/116) Accurately ripped
 04     [b424a4f7|f772332d] (000+005/115) Accurately ripped
 05     [425ef9e1|29847753] (000+005/116) Accurately ripped
 06     [add30bbf|df2df44f] (000+005/116) Accurately ripped
 07     [c911a8e6|07a877b2] (000+005/115) Accurately ripped
 08     [2416dd6b|bbdc338f] (000+005/116) Accurately ripped
 09     [0bddf077|8670bf20] (000+005/116) Accurately ripped
 10     [d16eb633|8ba478fa] (000+005/115) Accurately ripped
 11     [b4edcfa1|4c83e502] (000+005/114) Accurately ripped
 12     [2101b54d|812010eb] (000+005/114) Accurately ripped
 13     [06b1a8cd|1f8f08f4] (000+005/115) Accurately ripped
 14     [235a6a3a|90e4637e] (000+005/115) Accurately ripped
 15     [503ab47d|e44d9f8d] (000+005/115) Accurately ripped
 16     [1d067799|8891ebf6] (000+005/115) Accurately ripped
 17     [bc694be3|3790b86b] (000+005/114) Accurately ripped
 18     [fd599446|f9c73da8] (000+005/114) Accurately ripped
 19     [1303a0f1|65d68031] (000+005/115) Accurately ripped
 20     [4e6860d0|92b24cea] (000+005/114) Accurately ripped
 21     [21bc8753|e902da41] (000+005/111) Accurately ripped
Offsetted by -6:
 01     [f7a02f8c] (043/113) Accurately ripped
 02     [f235fe64] (044/116) Accurately ripped
 03     [fe678d83] (044/116) Accurately ripped
 04     [3c1e983c] (044/115) Accurately ripped
 05     [c8d27cc4] (044/116) Accurately ripped
 06     [7acb57bf] (044/116) Accurately ripped
 07     [85329a69] (044/115) Accurately ripped
 08     [c92ac73a] (044/116) Accurately ripped
 09     [86e3e77d] (044/116) Accurately ripped
 10     [65235942] (043/115) Accurately ripped
 11     [b951827c] (043/114) Accurately ripped
 12     [fdba3225] (043/114) Accurately ripped
 13     [1b4db60b] (043/115) Accurately ripped
 14     [cc8a7e58] (043/115) Accurately ripped
 15     [a1dca28d] (043/115) Accurately ripped
 16     [e96c2bc1] (043/115) Accurately ripped
 17     [e1a61396] (043/114) Accurately ripped
 18     [15f38b55] (043/114) Accurately ripped
 19     [2bb58426] (043/115) Accurately ripped
 20     [2be24ad5] (043/114) Accurately ripped
 21     [f220186b] (042/111) Accurately ripped
Offsetted by 587:
 01     [824e93e0] (002/113) Accurately ripped
 02     [68d81a80] (002/116) Accurately ripped
 03     [d0d48aec] (002/116) Accurately ripped
 04     [3a196483] (002/115) Accurately ripped
 05     [5bcf97eb] (002/116) Accurately ripped
 06     [a99e4633] (002/116) Accurately ripped
 07     [a101dd10] (002/115) Accurately ripped
 08     [4602ac12] (002/116) Accurately ripped
 09     [6a41f945] (002/116) Accurately ripped
 10     [f2cfd243] (002/115) Accurately ripped
 11     [f9c1adef] (002/114) Accurately ripped
 12     [712dca3c] (002/114) Accurately ripped
 13     [e9c3bbc5] (002/115) Accurately ripped
 14     [fb2564c3] (002/115) Accurately ripped
 15     [1809c86b] (002/115) Accurately ripped
 16     [1bf6ff03] (002/115) Accurately ripped
 17     [953a5c44] (002/114) Accurately ripped
 18     [2847f70a] (002/114) Accurately ripped
 19     [8d6258cc] (002/115) Accurately ripped
 20     [2b9b552d] (002/114) Accurately ripped
 21     [14f0aec6] (002/111) Accurately ripped
Offsetted by 781:
 01     [8fce2873] (012/113) Accurately ripped
 02     [44f60670] (012/116) Accurately ripped
 03     [fde2e553] (012/116) Accurately ripped
 04     [5f540478] (012/115) Accurately ripped
 05     [f865a46a] (012/116) Accurately ripped
 06     [f7f0d2d1] (012/116) Accurately ripped
 07     [a08de757] (012/115) Accurately ripped
 08     [53b234be] (012/116) Accurately ripped
 09     [1182caeb] (012/116) Accurately ripped
 10     [f93a528f] (012/115) Accurately ripped
 11     [439e4d4a] (012/114) Accurately ripped
 12     [d290c53a] (012/114) Accurately ripped
 13     [17112d2d] (012/115) Accurately ripped
 14     [9cbd84f9] (012/115) Accurately ripped
 15     [79c6e956] (012/115) Accurately ripped
 16     [7ccc39eb] (012/115) Accurately ripped
 17     [bdcae4d4] (012/114) Accurately ripped
 18     [12249f6f] (012/114) Accurately ripped
 19     [0df6cd39] (012/115) Accurately ripped
 20     [7fd230fa] (012/114) Accurately ripped
 21     [aaddd008] (012/111) Accurately ripped
Offsetted by -36:
 01     [288964b5] (000/113) No match (V2 was not tested)
 02     [a42366bd] (000/116) No match (V2 was not tested)
 03     [d30d41fb] (000/116) No match (V2 was not tested)
 04     [d5cd3a8e] (000/115) No match (V2 was not tested)
 05     [a706fd35] (000/116) No match (V2 was not tested)
 06     [b0c9f0b5] (000/116) No match (V2 was not tested)
 07     [03797687] (000/115) No match (V2 was not tested)
 08     [8625ba01] (000/116) No match (V2 was not tested)
 09     [b64bd349] (000/116) No match (V2 was not tested)
 10     [8989f163] (000/115) No match (V2 was not tested)
 11     [3a6b846f] (000/114) No match (V2 was not tested)
 12     [78dc1c0b] (000/114) No match (V2 was not tested)
 13     [8282f7db] (000/115) No match (V2 was not tested)
 14     [1a7ae2ee] (000/115) No match (V2 was not tested)
 15     [85429058] (000/115) No match (V2 was not tested)
 16     [d55862b3] (000/115) No match (V2 was not tested)
 17     [07996755] (000/114) No match (V2 was not tested)
 18     [80093d6c] (000/114) No match (V2 was not tested)
 19     [e8e83ba0] (000/115) No match (V2 was not tested)
 20     [79dd621a] (000/114) No match (V2 was not tested)
 21     [02d5e251] (000/111) No match (V2 was not tested)
Offsetted by 787:
 01     [bd60fd8c] (000/113) No match (V2 was not tested)
 02     [f049252a] (000/116) No match (V2 was not tested)
 03     [33b78f42] (000/116) No match (V2 was not tested)
 04     [c0c13ce7] (000/115) No match (V2 was not tested)
 05     [428f464d] (000/116) No match (V2 was not tested)
 06     [a5c9c46e] (000/116) No match (V2 was not tested)
 07     [b7f7094a] (000/115) No match (V2 was not tested)
 08     [bd297a6d] (000/116) No match (V2 was not tested)
 09     [6ac70c66] (000/116) No match (V2 was not tested)
 10     [da9588f8] (000/115) No match (V2 was not tested)
 11     [27ff7f59] (000/114) No match (V2 was not tested)
 12     [a8167cde] (000/114) No match (V2 was not tested)
 13     [038f20c1] (000/115) No match (V2 was not tested)
 14     [f38d70db] (000/115) No match (V2 was not tested)
 15     [dea0c7dc] (000/115) No match (V2 was not tested)
 16     [bac93fa4] (000/115) No match (V2 was not tested)
 17     [973fa848] (000/114) No match (V2 was not tested)
 18     [0b19fcd6] (000/114) No match (V2 was not tested)
 19     [e9486045] (000/115) No match (V2 was not tested)
 20     [f8c7c3d7] (000/114) No match (V2 was not tested)
 21     [fb87ae79] (000/111) No match (V2 was not tested)

Track Peak [ CRC32  ] [W/O NULL] [  LOG   ]
 --   98.4 [AF380A4B] [D5D61643]   CRC32   
 01   92.5 [1DFF0BC7] [68BE29D3]           
 02   84.0 [778855B5] [6A5EAFC1]           
 03   91.4 [0A5C3353] [EDC60927]           
 04   92.2 [76F0676A] [90313985]           
 05   87.9 [E35D5FE3] [CD058255]           
 06   94.9 [465C0D2C] [75DE7055]           
 07   90.2 [66579A20] [2EC790BA]           
 08   98.4 [C7FC9923] [D50FBA47]           
 09   89.7 [7939B0E6] [30D94913]           
 10   94.1 [DD38CF7C] [EC184407]           
 11   70.5 [2B7DB95E] [28DE28CA]           
 12   98.4 [93A5F2A6] [9DA4C84B]           
 13   81.5 [70C95EC0] [8F5A4F6B]           
 14   79.4 [982EA72F] [C14D2B6F]           
 15   97.4 [57756070] [5640FCE4]           
 16   65.8 [1B0A8C5D] [BAC6A046]           
 17   47.8 [9375B561] [5441D132]           
 18   97.2 [4D5A86F5] [42EB067F]           
 19   81.8 [DF47633A] [08AF5CDC]           
 20   90.3 [9B022458] [FC222625]           
 21   96.0 [ABE84F78] [A37C1439]           



Create a new paste based on this one


Comments: