[ create a new paste ] login | about

Link: http://codepad.org/UPjsF6tv    [ raw code | fork ]

Plain Text, pasted on Jun 8:
[CUETools log; Date: 6/8/2016 8:47:07 AM; Version: 2.1.5]
[CTDB TOCID: tVh5SRjnrlk9h0js_6BXaPI0G2c-] found.
Track | CTDB Status
  1   | (182/184) Accurately ripped
  2   | (183/184) Accurately ripped
  3   | (183/184) Accurately ripped
  4   | (183/184) Accurately ripped
  5   | (183/184) Accurately ripped
  6   | (183/184) Accurately ripped
  7   | (183/184) Accurately ripped
  8   | (183/184) Accurately ripped
  9   | (183/184) Accurately ripped
 10   | (182/184) Accurately ripped
 11   | (183/184) Accurately ripped
 12   | (182/184) Accurately ripped
 13   | (182/184) Accurately ripped
 14   | (182/184) Accurately ripped
 15   | (182/184) Accurately ripped
 16   | (181/184) Accurately ripped
 17   | (175/184) Accurately ripped
[AccurateRip ID: 002197b4-01aa07cd-df0cc611] found.
Track   [  CRC   |   V2   ] Status
 01     [1a628f8b|78fb79e8] (026+017/183) Accurately ripped
 02     [faf5ed95|21b280d5] (027+017/186) Accurately ripped
 03     [31fedfa9|df42d06d] (027+017/185) Accurately ripped
 04     [d41395f1|52cb6765] (027+017/186) Accurately ripped
 05     [22eefda2|0bdee8c5] (027+017/186) Accurately ripped
 06     [0eaf5ce4|16d1077d] (027+017/186) Accurately ripped
 07     [bea22f98|73b6a914] (026+017/184) Accurately ripped
 08     [e3604314|7a3533fb] (026+017/184) Accurately ripped
 09     [851dd876|067763d4] (025+017/184) Accurately ripped
 10     [7459579c|eeca8bbf] (026+017/184) Accurately ripped
 11     [aa6bb142|923159bf] (026+017/184) Accurately ripped
 12     [509eb3ab|9994772f] (027+017/185) Accurately ripped
 13     [905ab259|a2990d08] (027+017/185) Accurately ripped
 14     [09863af3|26aa2324] (027+017/184) Accurately ripped
 15     [6a1004a4|7bd575a3] (027+017/185) Accurately ripped
 16     [6dc121f8|c5c07d1b] (027+017/181) Accurately ripped
 17     [07ef799c|c2dd595f] (027+017/181) Accurately ripped
Offsetted by 43:
 01     [915efaa9] (046/183) Accurately ripped
 02     [16385ad2] (047/186) Accurately ripped
 03     [306b7b61] (047/185) Accurately ripped
 04     [41cc97df] (047/186) Accurately ripped
 05     [5fe34072] (046/186) Accurately ripped
 06     [0876f927] (046/186) Accurately ripped
 07     [78336fd8] (046/184) Accurately ripped
 08     [01edf9a0] (046/184) Accurately ripped
 09     [21440357] (046/184) Accurately ripped
 10     [6520588e] (046/184) Accurately ripped
 11     [3133395f] (046/184) Accurately ripped
 12     [e9f8d33c] (045/185) Accurately ripped
 13     [4d362f4b] (045/185) Accurately ripped
 14     [a8677c15] (045/184) Accurately ripped
 15     [dcfb1467] (046/185) Accurately ripped
 16     [716e659c] (044/181) Accurately ripped
 17     [dd84835b] (044/181) Accurately ripped

Track Peak [ CRC32  ] [W/O NULL] [  LOG   ]
 --   99.9 [B3544719] [7A224273]   CRC32   
 01   95.2 [02EA73C7] [5986FBF9]           
 02   94.9 [ED757AEE] [AAE5286B]           
 03   96.9 [23F05051] [7685B80B]           
 04   99.9 [823E9E14] [9BC6D9CC]           
 05   99.8 [5EE22379] [A5163203]           
 06   99.8 [6A00153E] [EF22DB40]           
 07   99.8 [56D7B857] [FCAE9FDC]           
 08   99.8 [F33976AA] [E549D6B7]           
 09   93.1 [178AD157] [E12E7F67]           
 10   99.9 [93283302] [F237536A]           
 11   99.9 [96206CF2] [D0BE1627]           
 12   88.5 [3993EDE1] [823E4DC4]           
 13   84.5 [032424DF] [07243A15]           
 14   99.8 [8967F072] [174A3243]           
 15   82.9 [FFC22A43] [2909B365]           
 16   95.3 [5EF2E79B] [95A84401]           
 17   99.9 [ECDA8FE9] [0A884D27]           



Create a new paste based on this one


Comments: