[ create a new paste ] login | about

Link: http://codepad.org/UR0D8GJT    [ raw code | fork ]

Plain Text, pasted on Jul 3:
Exact Audio Copy V0.99 prebeta 5 from 4. May 2009

EAC extraction logfile from 1. July 2016, 12:05

Eagles / Unplugged - Second Night (Disc 1)

Used drive  : ATAPI   iHAS122   C   Adapter: 1  ID: 1

Read mode               : Secure
Utilize accurate stream : Yes
Defeat audio cache      : Yes
Make use of C2 pointers : No

Read offset correction                      : 6
Overread into Lead-In and Lead-Out          : No
Fill up missing offset samples with silence : Yes
Delete leading and trailing silent blocks   : No
Null samples used in CRC calculations       : Yes
Used interface                              : Native Win32 interface for Win NT & 2000

Used output format : Internal WAV Routines
Sample format      : 44.100 Hz; 16 Bit; Stereo


TOC of the extracted CD

     Track |   Start  |  Length  | Start sector | End sector 
    ---------------------------------------------------------
        1  |  0:00.00 |  6:11.66 |         0    |    27890   
        2  |  6:11.66 |  5:38.60 |     27891    |    53300   
        3  | 11:50.51 |  3:44.69 |     53301    |    70169   
        4  | 15:35.45 |  4:47.45 |     70170    |    91739   
        5  | 20:23.15 |  6:37.45 |     91740    |   121559   
        6  | 27:00.60 |  5:41.70 |    121560    |   147204   
        7  | 32:42.55 |  5:00.65 |    147205    |   169769   
        8  | 37:43.45 |  7:20.53 |    169770    |   202822   
        9  | 45:04.23 |  5:24.09 |    202823    |   227131   
       10  | 50:28.32 |  1:30.05 |    227132    |   233886   
       11  | 51:58.37 |  3:55.22 |    233887    |   251533   
       12  | 55:53.59 |  4:41.16 |    251534    |   272624   


Range status and errors

Selected range

     Filename C:\Users\Arturs\Desktop\Eagles - Unplugged - Second Night (Disc 1).wav

     Peak level 100.0 %
     Range quality 100.0 %
     Test CRC 4525A6BC
     Copy CRC 4525A6BC
     Copy OK

No errors occurred

 
AccurateRip summary
 
Track  1  not present in database
Track  2  not present in database
Track  3  not present in database
Track  4  not present in database
Track  5  not present in database
Track  6  not present in database
Track  7  not present in database
Track  8  not present in database
Track  9  not present in database
Track 10  not present in database
Track 11  not present in database
Track 12  not present in database
 
None of the tracks are present in the AccurateRip database

End of status report



Create a new paste based on this one


Comments: