[ create a new paste ] login | about

Link: http://codepad.org/UU66AbxF    [ raw code | fork ]

Plain Text, pasted on Jan 31:
foobar2000 1.4.8 / Dynamic Range Meter 1.1.1
log date: 2020-01-31 08:27:16

--------------------------------------------------------------------------------
Analyzed: Dire Straits / Making Movies (2019 MFSL Hybrid SACD)
--------------------------------------------------------------------------------

DR         Peak         RMS     Duration Track
--------------------------------------------------------------------------------
DR12      -1.38 dB   -16.61 dB      8:15 01-Tunnel of Love
DR14      -0.01 dB   -20.17 dB      6:04 02-Romeo and Juliet
DR12      -1.30 dB   -16.86 dB      6:42 03-Skateaway
DR14      -0.74 dB   -17.40 dB      5:13 04-Expresso Love
DR15      -0.20 dB   -19.27 dB      4:49 05-Hand In Hand
DR12      -1.15 dB   -15.19 dB      3:27 06-Solid Rock
DR14      -2.53 dB   -20.25 dB      4:11 07-Les Boys
--------------------------------------------------------------------------------

Number of tracks:  7
Official DR value: DR13

Samplerate:        88200 Hz
Channels:          2
Bits per sample:   24
Bitrate:           2501 kbps
Codec:             FLAC
================================================================================




Create a new paste based on this one


Comments: