[ create a new paste ] login | about

Link: http://codepad.org/UYhsK9Hh    [ raw code | fork ]

Plain Text, pasted on Jul 11:
[CUETools log; Date: 7/11/2018 9:34:27 AM; Version: 2.1.5]
[CTDB TOCID: TpRKz0Dwz4agy70DBCsOlSIEUps-] found.
Track | CTDB Status
  1   | (147/147) Accurately ripped
  2   | (147/147) Accurately ripped
  3   | (147/147) Accurately ripped
  4   | (147/147) Accurately ripped
  5   | (147/147) Accurately ripped
  6   | (147/147) Accurately ripped
  7   | (147/147) Accurately ripped
  8   | (147/147) Accurately ripped
  9   | (147/147) Accurately ripped
 10   | (144/147) Accurately ripped
[AccurateRip ID: 001a0c05-00c87fbc-870dfb0a] found.
Track   [  CRC   |   V2   ] Status
 01     [f0f845a8|9deebe4a] (03+56/81) Accurately ripped
 02     [89a08302|90231180] (03+56/81) Accurately ripped
 03     [e818ece0|78619c69] (03+56/81) Accurately ripped
 04     [e0d52de1|a6b9e238] (03+56/81) Accurately ripped
 05     [dd9060bf|c3de89ee] (03+56/81) Accurately ripped
 06     [bd2ec611|a7f91334] (03+56/81) Accurately ripped
 07     [0c5f0dd6|764fa167] (03+56/81) Accurately ripped
 08     [858e25d3|6e99e79d] (03+54/79) Accurately ripped
 09     [594c5887|2e13c488] (03+56/81) Accurately ripped
 10     [8fdaf0e2|5845faf1] (03+56/81) Accurately ripped
Offsetted by 12:
 01     [438a4ff4] (00/81) No match (V2 was not tested)
 02     [774ba974] (00/81) No match (V2 was not tested)
 03     [382ba8a1] (00/81) No match (V2 was not tested)
 04     [70a2ec97] (00/81) No match (V2 was not tested)
 05     [195780f0] (00/81) No match (V2 was not tested)
 06     [d9234677] (00/81) No match (V2 was not tested)
 07     [3f36817c] (00/81) No match (V2 was not tested)
 08     [7f1fa586] (00/79) No match (V2 was not tested)
 09     [d27507b7] (00/81) No match (V2 was not tested)
 10     [88f789b0] (00/81) No match (V2 was not tested)

Track Peak [ CRC32  ] [W/O NULL] [  LOG   ]
 --   99.0 [43A6475C] [C02CB27E]   CRC32   
 01   98.8 [FD993F19] [2B44DE6C]           
 02   98.8 [ADB03A22] [CE0D024B]           
 03   98.8 [892D4910] [FE57F876]           
 04   98.8 [A74ADDCB] [097A686D]           
 05   98.8 [F1C9A7C9] [CABD5226]           
 06   99.0 [A0E37F0F] [2BFDC471]           
 07   98.9 [3C7E90C9] [9CAE4573]           
 08   98.8 [DE32FAFD] [348FB809]           
 09   98.8 [C2DA8F34] [8C8EFAEE]           
 10   98.8 [36CBB048] [703227C1]           



Create a new paste based on this one


Comments: