[ create a new paste ] login | about

Link: http://codepad.org/UclX39Vx    [ raw code | fork ]

Plain Text, pasted on Jul 14:
[CUETools log; Date: 7/14/2018 10:11:03 AM; Version: 2.1.5]
[CTDB TOCID: 4nRGZHzO6u4ECqfHNn.2tuuw388-] found.
Track | CTDB Status
  1   | (12/12) Accurately ripped
  2   | (12/12) Accurately ripped
  3   | (12/12) Accurately ripped
  4   | (12/12) Accurately ripped
  5   | (12/12) Accurately ripped
  6   | (12/12) Accurately ripped
  7   | (12/12) Accurately ripped
  8   | (12/12) Accurately ripped
  9   | (12/12) Accurately ripped
 10   | (12/12) Accurately ripped
 11   | (12/12) Accurately ripped
 12   | (12/12) Accurately ripped
 13   | (12/12) Accurately ripped
 14   | (12/12) Accurately ripped
 15   | (12/12) Accurately ripped
 16   | (12/12) Accurately ripped
 17   | (12/12) Accurately ripped
 18   | (12/12) Accurately ripped
 19   | (12/12) Accurately ripped
 20   | (12/12) Accurately ripped
 21   | (12/12) Accurately ripped
 22   | (12/12) Accurately ripped
[AccurateRip ID: 003e3bec-03e9492e-4a12b016] found.
Track   [  CRC   |   V2   ] Status
 01     [41cedbcf|407d2666] (00+14/14) Accurately ripped
 02     [f9dc789c|171f0fea] (00+14/14) Accurately ripped
 03     [b9aba55a|77aa5bb2] (00+14/14) Accurately ripped
 04     [7037c259|54944dc6] (00+14/14) Accurately ripped
 05     [06102e4a|cf99dc86] (00+14/14) Accurately ripped
 06     [87068fd7|5004c067] (00+14/14) Accurately ripped
 07     [97b25fc3|da047e00] (00+14/14) Accurately ripped
 08     [4a00d254|f06b24d5] (00+14/14) Accurately ripped
 09     [b59e8a6e|457177ab] (00+14/14) Accurately ripped
 10     [66a85d40|79635f4b] (00+14/14) Accurately ripped
 11     [f52998af|d5d7ef31] (00+14/14) Accurately ripped
 12     [2e4228de|d6907726] (00+14/14) Accurately ripped
 13     [95e2f3f8|92981a1f] (00+14/14) Accurately ripped
 14     [3c96b165|378e0af4] (00+14/14) Accurately ripped
 15     [309f4d44|ee455efa] (00+14/14) Accurately ripped
 16     [e00b8dc0|e3183108] (00+14/14) Accurately ripped
 17     [7775b65c|93060d42] (00+14/14) Accurately ripped
 18     [964d6b10|aa3096a3] (00+14/14) Accurately ripped
 19     [140dd68e|4e735dab] (00+14/14) Accurately ripped
 20     [350aeef8|409101ea] (00+14/14) Accurately ripped
 21     [790abd55|0f386bbd] (00+14/14) Accurately ripped
 22     [dd89ce99|dfe72740] (00+14/14) Accurately ripped

Track Peak [ CRC32  ] [W/O NULL] [  LOG   ]
 --   99.4 [924A79FE] [DA801570]   CRC32   
 01   99.4 [1EB6A78D] [F08F6797]           
 02   99.4 [0E98442E] [02261076]           
 03   99.4 [871359E5] [0DB5AFE5]           
 04   99.4 [37159B1F] [6E3DA78E]           
 05   97.5 [CB8EC40F] [985F7EE1]           
 06   99.4 [C3AA592D] [390DAF62]           
 07   99.4 [9CBF6BE0] [C959AB20]           
 08   99.4 [3BA8149E] [E0C90507]           
 09   81.0 [4AEE6562] [AA4F138D]           
 10   99.4 [539A7DD6] [C1726E33]           
 11   99.1 [166A0AC6] [ABC6B67F]           
 12   99.4 [EBD0CC5B] [869849DD]           
 13   99.4 [764FF0A9] [1764A5C2]           
 14   99.4 [D9902355] [50BFFF1E]           
 15   99.4 [ED26E765] [7FBB09A5]           
 16   99.4 [419BF1DF] [D7A96398]           
 17   99.4 [F66D52C8] [5C21F5F0]           
 18   99.4 [8554E303] [48AB0897]           
 19   99.4 [E68E0498] [834FAD58]           
 20   99.4 [9294E4ED] [ACD0922A]           
 21   86.9 [1E33980A] [17E433C3]           
 22   99.4 [CE7CAFDC] [6DD98878]           



Create a new paste based on this one


Comments: