[ create a new paste ] login | about

Link: http://codepad.org/UeESWZj8    [ raw code | fork ]

Plain Text, pasted on Aug 13:
foobar2000 1.4.4 / Dynamic Range Meter 1.1.1
log date: 2019-08-13 10:49:23

--------------------------------------------------------------------------------
Analyzed: The Who / Who's Next (Deluxe Edition)
--------------------------------------------------------------------------------

DR         Peak         RMS     Duration Track
--------------------------------------------------------------------------------
DR11       0.00 dB   -13.28 dB      5:00 01-Baba O'Riley
DR11       0.00 dB   -13.22 dB      5:33 02-Bargain
DR10       0.00 dB   -11.52 dB      2:11 03-Love Ain't for Keeping
DR11       0.00 dB   -12.41 dB      3:36 04-My Wife
DR11       0.00 dB   -13.47 dB      6:20 05-The Song Is Over
DR11       0.00 dB   -13.05 dB      4:49 06-Getting In Tune
DR12      -0.03 dB   -13.06 dB      3:43 07-Going Mobile
DR12       0.00 dB   -13.79 dB      3:40 08-Behind Blue Eyes
DR10       0.00 dB   -11.29 dB      8:36 09-Won't Get Fooled Again
DR11       0.00 dB   -12.34 dB      8:43 10-Baby Don't You Do It (New York Record Plant Session)
DR12       0.00 dB   -13.32 dB      6:47 11-Getting In Tune (New York Record Plant Session)
DR10       0.00 dB   -12.03 dB      4:38 12-Pure and Easy (New York Record Plant Session)
DR10       0.00 dB   -11.14 dB      4:05 13-Love Ain't for Keeping (New York Record Plant Session)
DR10       0.00 dB   -12.80 dB      3:28 14-Behind Blue Eyes (New York Record Plant Session)
DR10       0.00 dB   -12.47 dB      8:48 15-Won't Get Fooled Again (New York Record Plant Session)
DR11       0.00 dB   -12.20 dB      3:01 16-Love Ain't for Keeping (Live)
DR10       0.00 dB   -11.47 dB      6:29 17-Pure and Easy (Live)
DR9        0.00 dB   -10.63 dB      4:50 18-Young Man Blues (Live)
DR10       0.00 dB   -12.33 dB      3:59 19-Time Is Passing (Live)
DR11       0.00 dB   -15.34 dB      4:55 20-Behind Blue Eyes (Live)
DR10       0.00 dB   -13.07 dB      5:43 21-I Don't Even Know Myself (Live)
DR11       0.00 dB   -13.02 dB      4:22 22-Too Much of Anything (Live)
DR11       0.00 dB   -12.81 dB      7:05 23-Getting In Tune (Live)
DR11       0.00 dB   -12.38 dB      5:43 24-Bargain (Live)
DR11       0.00 dB   -12.77 dB      8:33 25-Water (Live)
DR10       0.00 dB   -11.16 dB      2:58 26-My Generation (Live)
DR10       0.00 dB   -11.35 dB      3:14 27-(I'm a) Road Runner (Live)
DR12       0.00 dB   -13.80 dB      6:22 28-Naked Eye (Live)
DR10       0.00 dB   -11.40 dB      8:42 29-Won't Get Fooled Again (Live)
--------------------------------------------------------------------------------

Number of tracks:  29
Official DR value: DR11

Samplerate:        96000 Hz
Channels:          2
Bits per sample:   24
Bitrate:           2794 kbps
Codec:             FLAC
================================================================================




Create a new paste based on this one


Comments: