[ create a new paste ] login | about

Link: http://codepad.org/Uelmq4UH    [ raw code | fork ]

Plain Text, pasted on Sep 16:
[CUETools log; Date: 9/16/2016 8:53:38 AM; Version: 2.1.5]
[CTDB TOCID: BEeDVSfmuzcYYMC_lpk3W6T2Qq0-] found.
Track | CTDB Status
  1   | (6/6) Accurately ripped
  2   | (6/6) Accurately ripped
  3   | (6/6) Accurately ripped
  4   | (6/6) Accurately ripped
  5   | (6/6) Accurately ripped
  6   | (6/6) Accurately ripped
  7   | (6/6) Accurately ripped
  8   | (6/6) Accurately ripped
  9   | (6/6) Accurately ripped
 10   | (6/6) Accurately ripped
 11   | (6/6) Accurately ripped
 12   | (6/6) Accurately ripped
 13   | (6/6) Accurately ripped
 14   | (6/6) Accurately ripped
 15   | (6/6) Accurately ripped
 16   | (6/6) Accurately ripped
 17   | (6/6) Accurately ripped
 18   | (5/6) Accurately ripped
 19   | (5/6) Accurately ripped
 20   | (5/6) Accurately ripped
 21   | (5/6) Accurately ripped
 22   | (5/6) Accurately ripped
 23   | (5/6) Accurately ripped
 24   | (5/6) Accurately ripped
 25   | (5/6) Accurately ripped
 26   | (5/6) Accurately ripped
[AccurateRip ID: 00416c33-04cbc99f-6e10cb1a] found.
Track   [  CRC   |   V2   ] Status
 01     [6a894bf3|331bfae0] (2+3/7) Accurately ripped
 02     [06937817|ce167bf5] (2+3/7) Accurately ripped
 03     [f4e41d0d|b4f3ef45] (2+3/7) Accurately ripped
 04     [f17381f8|13a40e28] (2+3/7) Accurately ripped
 05     [3d6ebc0b|8cf30b92] (2+3/7) Accurately ripped
 06     [db5ee614|438d3f37] (2+3/7) Accurately ripped
 07     [72000749|8028ed51] (2+3/7) Accurately ripped
 08     [304e80f1|f54e58b3] (2+3/7) Accurately ripped
 09     [38a8533f|14443893] (2+3/7) Accurately ripped
 10     [f1c50cb4|8ec31637] (2+3/7) Accurately ripped
 11     [c1cf287c|d6b91d2e] (2+3/7) Accurately ripped
 12     [22a3e1eb|2da3a056] (2+3/7) Accurately ripped
 13     [eafcf918|c8688522] (2+3/7) Accurately ripped
 14     [c2f6fffa|a8a5c40a] (2+3/7) Accurately ripped
 15     [7d75d663|64a5f464] (2+3/7) Accurately ripped
 16     [fa872f64|1c55cf2d] (2+3/7) Accurately ripped
 17     [1fc58115|8e34cd47] (2+3/7) Accurately ripped
 18     [d352f30f|f51d927b] (2+3/7) Accurately ripped
 19     [6747ee34|5b5b60a7] (2+3/7) Accurately ripped
 20     [9fe1cc3c|3cf1ad54] (2+3/7) Accurately ripped
 21     [62b75beb|5bdb3fc0] (2+3/7) Accurately ripped
 22     [e5a067c4|d0689880] (2+3/7) Accurately ripped
 23     [043dd0d6|8cc28a5d] (2+3/7) Accurately ripped
 24     [5fb23fa9|5f2e55fc] (2+3/7) Accurately ripped
 25     [d8381710|ed8f9557] (2+3/7) Accurately ripped
 26     [7b3c6247|f6f749e6] (2+3/7) Accurately ripped
Offsetted by -609:
 01     [5bc6a7a8] (2/7) Accurately ripped
 02     [791c2103] (2/7) Accurately ripped
 03     [ede859e2] (2/7) Accurately ripped
 04     [918ce44d] (2/7) Accurately ripped
 05     [c4f6fbcf] (2/7) Accurately ripped
 06     [112192d8] (2/7) Accurately ripped
 07     [38a5f041] (2/7) Accurately ripped
 08     [daf02335] (2/7) Accurately ripped
 09     [7908bd2f] (2/7) Accurately ripped
 10     [094dfbc2] (2/7) Accurately ripped
 11     [8dde3a1d] (2/7) Accurately ripped
 12     [27ba7cf5] (2/7) Accurately ripped
 13     [4ec836a4] (2/7) Accurately ripped
 14     [3c4ef9f1] (2/7) Accurately ripped
 15     [2198bb98] (2/7) Accurately ripped
 16     [10d16047] (2/7) Accurately ripped
 17     [7c06de5c] (2/7) Accurately ripped
 18     [508e52b4] (2/7) Accurately ripped
 19     [4db2b690] (2/7) Accurately ripped
 20     [1a6e41d8] (2/7) Accurately ripped
 21     [78f9998f] (2/7) Accurately ripped
 22     [59764b5e] (2/7) Accurately ripped
 23     [50422eda] (2/7) Accurately ripped
 24     [2f6766ff] (2/7) Accurately ripped
 25     [b1fe6df6] (2/7) Accurately ripped
 26     [2fc1be2f] (2/7) Accurately ripped

Track Peak [ CRC32  ] [W/O NULL] 
 --   98.9 [7CC56845] [9ED9712A]           
 01   98.8 [2AE727EA] [10882121]           
 02   98.8 [0BB9E515] [F45EE4B3]           
 03   98.8 [BC02DAFC] [281582BD]           
 04   97.2 [16E4B742] [D26F1E0F]           
 05   98.8 [5AC0D011] [6485D3BD]           
 06   98.8 [F10294AA] [D59B96A2]           
 07   98.8 [90C8BE2A] [9EAD9BDC]           
 08   98.8 [EDF48603] [D70074F3]           
 09   98.8 [69A46059] [3F9D9D59]           
 10   98.8 [86B45C95] [29ECEA98]           
 11   94.9 [8B1E97D0] [D1C53C60]           
 12   98.8 [7D8BA560] [431CFA03]           
 13   98.8 [FA272996] [F0436540]           
 14   98.8 [D3669760] [20B4A189]           
 15   98.8 [0C5077D8] [648FB6D1]           
 16   98.8 [E08B153B] [10B745D5]           
 17   98.8 [B53E8B02] [3D55CC2E]           
 18   98.8 [C5F2FE43] [8FCB27F6]           
 19   98.8 [8ADA392B] [E64C981D]           
 20   98.8 [7F26115E] [804080EF]           
 21   95.3 [DB0E2723] [7925B643]           
 22   98.8 [81446C9A] [0439F401]           
 23   98.9 [3F867712] [EF499CE1]           
 24   86.5 [64E81BFE] [0A4F37D2]           
 25   98.8 [3CE3ACF1] [4CA8B13D]           
 26   98.8 [6E285A1D] [22F70151]           



Create a new paste based on this one


Comments: