[ create a new paste ] login | about

Link: http://codepad.org/UkThFqxF    [ raw code | fork ]

Plain Text, pasted on Apr 24:
Exact Audio Copy V0.99 prebeta 5 from 4. May 2009

EAC extraction logfile from 19. February 2011, 22:42

Little Richard / The Specialty Sessions 6CD. CD3 

Used drive  : PLEXTOR CD-R   PREMIUM   Adapter: 0  ID: 1

Read mode               : Secure
Utilize accurate stream : Yes
Defeat audio cache      : Yes
Make use of C2 pointers : No

Read offset correction                      : 30
Overread into Lead-In and Lead-Out          : No
Fill up missing offset samples with silence : Yes
Delete leading and trailing silent blocks   : No
Null samples used in CRC calculations       : Yes
Used interface                              : Installed external ASPI interface

Used output format              : User Defined Encoder
Selected bitrate                : 768 kBit/s
Quality                         : High
Add ID3 tag                     : No
Command line compressor         : D:\Program Files\Exact Audio Copy\FLAC\FLAC.EXE
Additional command line options : -8 -V -T "ARTIST=%a" -T "TITLE=%t" -T "ALBUM=%g" -T "DATE=%y" -T "TRACKNUMBER=%n" -T "GENRE=%m" -T "COMMENT=EAC FLAC -8" %s


TOC of the extracted CD

     Track |   Start  |  Length  | Start sector | End sector 
    ---------------------------------------------------------
        1  |  0:00.33 |  2:44.72 |        33    |    12404   
        2  |  2:45.30 |  2:10.50 |     12405    |    22204   
        3  |  4:56.05 |  2:18.15 |     22205    |    32569   
        4  |  7:14.20 |  2:11.35 |     32570    |    42429   
        5  |  9:25.55 |  1:55.20 |     42430    |    51074   
        6  | 11:21.00 |  2:16.10 |     51075    |    61284   
        7  | 13:37.10 |  2:25.43 |     61285    |    72202   
        8  | 16:02.53 |  2:26.72 |     72203    |    83224   
        9  | 18:29.50 |  2:08.18 |     83225    |    92842   
       10  | 20:37.68 |  2:17.02 |     92843    |   103119   
       11  | 22:54.70 |  2:09.68 |    103120    |   112862   
       12  | 25:04.63 |  2:06.52 |    112863    |   122364   
       13  | 27:11.40 |  2:28.10 |    122365    |   133474   
       14  | 29:39.50 |  2:21.40 |    133475    |   144089   
       15  | 32:01.15 |  1:53.10 |    144090    |   152574   
       16  | 33:54.25 |  1:45.55 |    152575    |   160504   
       17  | 35:40.05 |  2:09.35 |    160505    |   170214   
       18  | 37:49.40 |  2:10.25 |    170215    |   179989   
       19  | 39:59.65 |  2:10.35 |    179990    |   189774   
       20  | 42:10.25 |  2:17.53 |    189775    |   200102   
       21  | 44:28.03 |  2:06.65 |    200103    |   209617   
       22  | 46:34.68 |  2:07.47 |    209618    |   219189   
       23  | 48:42.40 |  2:23.25 |    219190    |   229939   
       24  | 51:05.65 |  2:12.65 |    229940    |   239904   
       25  | 53:18.55 |  2:34.40 |    239905    |   251494   
       26  | 55:53.20 |  2:21.15 |    251495    |   262084   


Range status and errors

Selected range

     Filename I:\Little Richard - 6CD\cd3\Little Richard - The Specialty Sessions 6CD. CD3.wav

     Peak level 95.1 %
     Range quality 100.0 %
     Test CRC 24EF6C51
     Copy CRC 24EF6C51
     Copy OK

No errors occurred

 
AccurateRip summary
 
Track  1  cannot be verified as accurate (confidence 4)  [B7A39C33], AccurateRip returned [004C9371]
Track  2  cannot be verified as accurate (confidence 4)  [C727A865], AccurateRip returned [7EED43BD]
Track  3  cannot be verified as accurate (confidence 4)  [D6A6C420], AccurateRip returned [F71A0D82]
Track  4  cannot be verified as accurate (confidence 4)  [C80E57F8], AccurateRip returned [5F36C47C]
Track  5  cannot be verified as accurate (confidence 4)  [D9227FB1], AccurateRip returned [D485C77A]
Track  6  cannot be verified as accurate (confidence 4)  [ED3BF96E], AccurateRip returned [148C1550]
Track  7  cannot be verified as accurate (confidence 4)  [B4156A83], AccurateRip returned [05937FE2]
Track  8  cannot be verified as accurate (confidence 4)  [5C968F1D], AccurateRip returned [021B3516]
Track  9  cannot be verified as accurate (confidence 4)  [E4738546], AccurateRip returned [68CD96DA]
Track 10  cannot be verified as accurate (confidence 3)  [D79128AD], AccurateRip returned [2B201265]
Track 11  cannot be verified as accurate (confidence 4)  [F1C406CD], AccurateRip returned [B770E5FD]
Track 12  cannot be verified as accurate (confidence 4)  [B76A3D5D], AccurateRip returned [7224EF7D]
Track 13  cannot be verified as accurate (confidence 4)  [9848A891], AccurateRip returned [AA92C3A5]
Track 14  cannot be verified as accurate (confidence 4)  [0A028D6F], AccurateRip returned [C7070048]
Track 15  cannot be verified as accurate (confidence 4)  [B0B1096B], AccurateRip returned [360EF80E]
Track 16  cannot be verified as accurate (confidence 4)  [1B595275], AccurateRip returned [2E52EFF3]
Track 17  cannot be verified as accurate (confidence 4)  [72DF3E6A], AccurateRip returned [2215B402]
Track 18  cannot be verified as accurate (confidence 4)  [A26B3A09], AccurateRip returned [20B34AD9]
Track 19  cannot be verified as accurate (confidence 4)  [5ADB2E1C], AccurateRip returned [74D14663]
Track 20  cannot be verified as accurate (confidence 4)  [93C3C371], AccurateRip returned [A9E07345]
Track 21  cannot be verified as accurate (confidence 4)  [60811133], AccurateRip returned [4D7875F5]
Track 22  cannot be verified as accurate (confidence 4)  [C5080A05], AccurateRip returned [42B2D305]
Track 23  cannot be verified as accurate (confidence 4)  [E1114DEE], AccurateRip returned [F71C8DAF]
Track 24  cannot be verified as accurate (confidence 4)  [463E2226], AccurateRip returned [548853CE]
Track 25  cannot be verified as accurate (confidence 4)  [0011C3D0], AccurateRip returned [7A4D5493]
Track 26  cannot be verified as accurate (confidence 4)  [96A4EE92], AccurateRip returned [E1EAB882]
 
No tracks could be verified as accurate
You may have a different pressing from the one(s) in the database

End of status report



Create a new paste based on this one


Comments: