[ create a new paste ] login | about

Link: http://codepad.org/UmxAwLhA    [ raw code | fork ]

Plain Text, pasted on Jul 23:
foobar2000 1.3.17 / Dynamic Range Meter 1.1.1
log date: 2018-07-23 13:36:22

--------------------------------------------------------------------------------
Analyzed: The Band / Moondog Matinee
--------------------------------------------------------------------------------

DR         Peak         RMS     Duration Track
--------------------------------------------------------------------------------
DR15      -6.50 dB   -23.08 dB      3:25 01-Ain't Got No Home
DR15      -7.81 dB   -25.32 dB      3:22 02-Holy Cow
DR13      -5.86 dB   -24.37 dB      2:54 03-Share Your Love With Me
DR15      -7.97 dB   -24.45 dB      5:41 04-Mystery Train
DR16      -5.83 dB   -23.27 dB      2:49 05-Third Man Theme
DR15      -5.96 dB   -23.88 dB      3:01 06-Promised Land
DR15      -8.06 dB   -24.45 dB      3:10 07-The Great Pretender
DR15      -6.50 dB   -23.68 dB      3:29 08-I'm Ready
DR15      -6.72 dB   -23.34 dB      3:50 09-Saved
DR14      -8.40 dB   -24.80 dB      4:19 10-A Change Is Gonna Come
--------------------------------------------------------------------------------

Number of tracks:  10
Official DR value: DR15

Samplerate:        2822400 Hz / PCM Samplerate: 176400 Hz
Channels:          2
Bits per sample:   1
Bitrate:           5645 kbps
Codec:             DSD64
================================================================================




Create a new paste based on this one


Comments: