[ create a new paste ] login | about

Link: http://codepad.org/Umz4oTd8    [ raw code | fork ]

Plain Text, pasted on May 8:
foobar2000 1.4.1 / Dynamic Range Meter 1.1.1
log date: 2019-05-07 23:11:12

--------------------------------------------------------------------------------
Analyzed: MILES DAVIS / LIVE AT THE OLYMPIA
--------------------------------------------------------------------------------

DR         Peak         RMS     Duration Track
--------------------------------------------------------------------------------
DR11      -1.94 dB   -17.46 dB     17:08 01-ALL OF YOU
DR11      -2.66 dB   -17.64 dB     13:28 02-SO WHAT
DR10      -1.70 dB   -16.42 dB      5:40 03-ROUND MIDNIGHT
DR12      -1.90 dB   -18.40 dB      9:25 04-WALKIN'
DR12      -1.61 dB   -20.95 dB      7:26 05-FRAN DANCE
DR12      -1.71 dB   -18.11 dB      8:47 06-FOUR
DR11      -2.08 dB   -17.12 dB      5:54 07-TWO BASS HIT
--------------------------------------------------------------------------------

Number of tracks:  7
Official DR value: DR11

Samplerate:        88200 Hz
Channels:          5
Bits per sample:   24
Bitrate:           6378 kbps
Codec:             FLAC
================================================================================




Create a new paste based on this one


Comments: