[ create a new paste ] login | about

Link: http://codepad.org/Up3EMHDc    [ raw code | fork ]

Plain Text, pasted on Nov 7:
Exact Audio Copy V1.1 from 23. June 2015

EAC extraction logfile from 5. November 2016, 0:11

Santana / Santana IV Live At The House Of Blues Las Vegas

Used drive  : PLEXTOR DVDR   PX-891SA   Adapter: 1  ID: 0

Read mode               : Secure
Utilize accurate stream : Yes
Defeat audio cache      : Yes
Make use of C2 pointers : No

Read offset correction                      : 6
Overread into Lead-In and Lead-Out          : No
Fill up missing offset samples with silence : Yes
Delete leading and trailing silent blocks   : No
Null samples used in CRC calculations       : Yes
Used interface                              : Native Win32 interface for Win NT & 2000
Gap handling                                : Appended to previous track

Used output format              : User Defined Encoder
Selected bitrate                : 1024 kBit/s
Quality                         : High
Add ID3 tag                     : No
Command line compressor         : C:\Program Files (x86)\Exact Audio Copy\Flac\flac.exe
Additional command line options : -0 -V -T "ARTIST=%artist%" -T "TITLE=%title%" -T "ALBUM=%albumtitle%" -T "DATE=%year%" -T "TRACKNUMBER=%tracknr%" -T "TOTALTRACKS=%numtracks%" -T "GENRE=%genre%" -T "COMMENT=" %source%


TOC of the extracted CD

     Track |   Start  |  Length  | Start sector | End sector 
    ---------------------------------------------------------
        1  |  0:00.00 |  8:21.20 |         0    |    37594   
        2  |  8:21.20 |  4:56.07 |     37595    |    59801   
        3  | 13:17.27 |  7:07.70 |     59802    |    91896   
        4  | 20:25.22 |  4:00.38 |     91897    |   109934   
        5  | 24:25.60 |  4:43.04 |    109935    |   131163   
        6  | 29:08.64 |  4:54.42 |    131164    |   153255   
        7  | 34:03.31 |  3:44.72 |    153256    |   170127   
        8  | 37:48.28 |  2:08.03 |    170128    |   179730   
        9  | 39:56.31 |  5:49.29 |    179731    |   205934   
       10  | 45:45.60 |  3:21.26 |    205935    |   221035   
       11  | 49:07.11 |  5:09.74 |    221036    |   244284   
       12  | 54:17.10 |  5:39.48 |    244285    |   269757   
       13  | 59:56.58 |  4:52.31 |    269758    |   291688   


Track  1

     Filename E:\Santana ‎– Santana IV Live At The House Of Blues Las Vegas (2 CD + DVD 2016)[FLAC]\CD 1\01 - Soul Sacrifice.wav

     Pre-gap length  0:00:02.00

     Peak level 100.0 %
     Extraction speed 2.2 X
     Track quality 100.0 %
     Test CRC CEC5CE07
     Copy CRC CEC5CE07
     Track not present in AccurateRip database
     Copy OK

Track  2

     Filename E:\Santana ‎– Santana IV Live At The House Of Blues Las Vegas (2 CD + DVD 2016)[FLAC]\CD 1\02 - Jingo.wav

     Peak level 100.0 %
     Extraction speed 2.4 X
     Track quality 100.0 %
     Test CRC 17EA7072
     Copy CRC 17EA7072
     Track not present in AccurateRip database
     Copy OK

Track  3

     Filename E:\Santana ‎– Santana IV Live At The House Of Blues Las Vegas (2 CD + DVD 2016)[FLAC]\CD 1\03 - Evil Ways.wav

     Peak level 100.0 %
     Extraction speed 2.3 X
     Track quality 99.9 %
     Test CRC C7F5E581
     Copy CRC C7F5E581
     Track not present in AccurateRip database
     Copy OK

Track  4

     Filename E:\Santana ‎– Santana IV Live At The House Of Blues Las Vegas (2 CD + DVD 2016)[FLAC]\CD 1\04 - Everybody's Everything.wav

     Peak level 100.0 %
     Extraction speed 2.8 X
     Track quality 100.0 %
     Test CRC E84CCEC0
     Copy CRC E84CCEC0
     Track not present in AccurateRip database
     Copy OK

Track  5

     Filename E:\Santana ‎– Santana IV Live At The House Of Blues Las Vegas (2 CD + DVD 2016)[FLAC]\CD 1\05 - Shake It.wav

     Peak level 100.0 %
     Extraction speed 3.1 X
     Track quality 100.0 %
     Test CRC D2A152CB
     Copy CRC D2A152CB
     Track not present in AccurateRip database
     Copy OK

Track  6

     Filename E:\Santana ‎– Santana IV Live At The House Of Blues Las Vegas (2 CD + DVD 2016)[FLAC]\CD 1\06 - Anywhere You Want To Go.wav

     Peak level 99.9 %
     Extraction speed 3.2 X
     Track quality 100.0 %
     Test CRC BB5A3F6A
     Copy CRC BB5A3F6A
     Track not present in AccurateRip database
     Copy OK

Track  7

     Filename E:\Santana ‎– Santana IV Live At The House Of Blues Las Vegas (2 CD + DVD 2016)[FLAC]\CD 1\07 - Choo Choo.wav

     Peak level 100.0 %
     Extraction speed 3.3 X
     Track quality 100.0 %
     Test CRC A1BEB2E8
     Copy CRC A1BEB2E8
     Track not present in AccurateRip database
     Copy OK

Track  8

     Filename E:\Santana ‎– Santana IV Live At The House Of Blues Las Vegas (2 CD + DVD 2016)[FLAC]\CD 1\08 - All Aboard.wav

     Peak level 100.0 %
     Extraction speed 3.0 X
     Track quality 100.0 %
     Test CRC 9B1AD690
     Copy CRC 9B1AD690
     Track not present in AccurateRip database
     Copy OK

Track  9

     Filename E:\Santana ‎– Santana IV Live At The House Of Blues Las Vegas (2 CD + DVD 2016)[FLAC]\CD 1\09 - Samba Pa Ti.wav

     Peak level 100.0 %
     Extraction speed 3.7 X
     Track quality 100.0 %
     Test CRC FE81C0F6
     Copy CRC FE81C0F6
     Track not present in AccurateRip database
     Copy OK

Track 10

     Filename E:\Santana ‎– Santana IV Live At The House Of Blues Las Vegas (2 CD + DVD 2016)[FLAC]\CD 1\10 - Batuka.wav

     Peak level 100.0 %
     Extraction speed 3.5 X
     Track quality 100.0 %
     Test CRC 9FFF519D
     Copy CRC 9FFF519D
     Track not present in AccurateRip database
     Copy OK

Track 11

     Filename E:\Santana ‎– Santana IV Live At The House Of Blues Las Vegas (2 CD + DVD 2016)[FLAC]\CD 1\11 - No One to Depend On.wav

     Peak level 100.0 %
     Extraction speed 3.9 X
     Track quality 100.0 %
     Test CRC 1F074B0C
     Copy CRC 1F074B0C
     Track not present in AccurateRip database
     Copy OK

Track 12

     Filename E:\Santana ‎– Santana IV Live At The House Of Blues Las Vegas (2 CD + DVD 2016)[FLAC]\CD 1\12 - Leave Me Alone.wav

     Peak level 100.0 %
     Extraction speed 3.2 X
     Track quality 99.9 %
     Test CRC 248759E5
     Copy CRC 248759E5
     Track not present in AccurateRip database
     Copy OK

Track 13

     Filename E:\Santana ‎– Santana IV Live At The House Of Blues Las Vegas (2 CD + DVD 2016)[FLAC]\CD 1\13 - Suenos.wav

     Peak level 100.0 %
     Extraction speed 4.1 X
     Track quality 100.0 %
     Test CRC 5FDF5EB7
     Copy CRC 5FDF5EB7
     Track not present in AccurateRip database
     Copy OK


None of the tracks are present in the AccurateRip database

No errors occurred

End of status report

==== Log checksum 6F2885FA670403552FF095FE4422BE846B3C885F76EBA8945EE4D067190D2FD1 ====



Create a new paste based on this one


Comments: