[ create a new paste ] login | about

Link: http://codepad.org/UpR6bVpD    [ raw code | fork ]

Plain Text, pasted on Nov 26:
[CUETools log; Date: 11/26/2016 7:32:42 AM; Version: 2.1.5]
[CTDB TOCID: RwqHDZ6vVeLd7mZwbsFxKmn4auU-] found.
Track | CTDB Status
  1   | (37/37) Accurately ripped
  2   | (37/37) Accurately ripped
  3   | (37/37) Accurately ripped
  4   | (37/37) Accurately ripped
  5   | (37/37) Accurately ripped
  6   | (37/37) Accurately ripped
  7   | (37/37) Accurately ripped
  8   | (37/37) Accurately ripped
  9   | (37/37) Accurately ripped
 10   | (37/37) Accurately ripped
 11   | (37/37) Accurately ripped
 12   | (37/37) Accurately ripped
 13   | (37/37) Accurately ripped
 14   | (37/37) Accurately ripped
 15   | (36/37) Accurately ripped
 16   | (37/37) Accurately ripped
 17   | (37/37) Accurately ripped
 18   | (37/37) Accurately ripped
 19   | (35/37) Accurately ripped
 20   | (36/37) Accurately ripped
 21   | (37/37) Accurately ripped
 22   | (37/37) Accurately ripped
 23   | (37/37) Accurately ripped
 24   | (36/37) Accurately ripped
 25   | (37/37) Accurately ripped
 26   | (36/37) Accurately ripped
 27   | (37/37) Accurately ripped
 28   | (37/37) Accurately ripped
 29   | (36/37) Accurately ripped
 30   | (36/37) Accurately ripped
 31   | (35/37) Accurately ripped
 32   | (29/37) Differs in 5193 samples @02:17:40-02:17:45
[AccurateRip ID: 0058265a-07c100bb-c9118b20] found.
Track   [  CRC   |   V2   ] Status
 01     [9b3f9e28|31bf591a] (021+033/115) Accurately ripped
 02     [e889153c|aa7c4671] (022+033/117) Accurately ripped
 03     [188ac5aa|c0666a67] (022+032/115) Accurately ripped
 04     [7d0b719d|f84c5494] (021+033/115) Accurately ripped
 05     [dd759c3e|87df6a63] (022+033/116) Accurately ripped
 06     [b7e84c3a|573b001f] (022+032/117) Accurately ripped
 07     [04ccd120|10f21924] (021+032/114) Accurately ripped
 08     [651931c4|f71f59d9] (022+033/117) Accurately ripped
 09     [9c10d4d6|885fc605] (022+033/116) Accurately ripped
 10     [eeb52551|01b1ef11] (022+033/116) Accurately ripped
 11     [10df8f4b|0b890cfb] (022+032/115) Accurately ripped
 12     [1455b95e|2b261da0] (021+032/115) Accurately ripped
 13     [7882813d|7aecb5d1] (022+031/113) Accurately ripped
 14     [10d9ebcf|d8d7a9a1] (022+033/116) Accurately ripped
 15     [0b23bd92|52ad9cda] (022+033/116) Accurately ripped
 16     [a52fbd47|63bda5b4] (021+033/115) Accurately ripped
 17     [19b7d255|c843e768] (021+033/114) Accurately ripped
 18     [51832352|9fe888a5] (021+033/116) Accurately ripped
 19     [fd6316e9|afd2b4f7] (021+032/112) Accurately ripped
 20     [99adb260|34b487ef] (021+033/114) Accurately ripped
 21     [49c733a8|ec80ac6e] (021+033/116) Accurately ripped
 22     [a5d3afc2|3dec0496] (019+033/114) Accurately ripped
 23     [92d0b5da|23e1914e] (021+032/115) Accurately ripped
 24     [698f6f92|73d62cb4] (020+031/114) Accurately ripped
 25     [e23bdc84|70a5d902] (022+032/117) Accurately ripped
 26     [e4c1ef54|aff5b4af] (022+032/115) Accurately ripped
 27     [82415e62|cc970062] (021+033/117) Accurately ripped
 28     [afe196a1|ea895971] (021+032/115) Accurately ripped
 29     [59188183|767c319f] (022+031/115) Accurately ripped
 30     [def8fb93|3826f716] (021+032/113) Accurately ripped
 31     [f60c850f|d5afbeb1] (021+031/112) Accurately ripped
 32     [d5c7316e|42080265] (000+000/108) No match
Offsetted by 12:
 01     [12e3308d] (035/115) Accurately ripped
 02     [88ba3148] (035/117) Accurately ripped
 03     [1a24d5df] (034/115) Accurately ripped
 04     [0a0dcd1a] (034/115) Accurately ripped
 05     [249f768c] (034/116) Accurately ripped
 06     [7625e3dc] (036/117) Accurately ripped
 07     [312c1b05] (034/114) Accurately ripped
 08     [d9054b4b] (035/117) Accurately ripped
 09     [78eafebd] (034/116) Accurately ripped
 10     [97d84219] (034/116) Accurately ripped
 11     [792ac926] (034/115) Accurately ripped
 12     [273d4855] (035/115) Accurately ripped
 13     [4708a942] (033/113) Accurately ripped
 14     [9ab96756] (034/116) Accurately ripped
 15     [1e3f9008] (034/116) Accurately ripped
 16     [1409e67c] (034/115) Accurately ripped
 17     [6aaf1f99] (034/114) Accurately ripped
 18     [089efee5] (034/116) Accurately ripped
 19     [efb620bb] (033/112) Accurately ripped
 20     [60e1740d] (033/114) Accurately ripped
 21     [5007b7f4] (034/116) Accurately ripped
 22     [7308e461] (034/114) Accurately ripped
 23     [894da2c5] (035/115) Accurately ripped
 24     [e5e94444] (035/114) Accurately ripped
 25     [dada65b3] (035/117) Accurately ripped
 26     [1170e58c] (034/115) Accurately ripped
 27     [3847eea3] (035/117) Accurately ripped
 28     [a4b720e2] (035/115) Accurately ripped
 29     [3214810b] (035/115) Accurately ripped
 30     [d62ae427] (033/113) Accurately ripped
 31     [a28e6741] (033/112) Accurately ripped
 32     [0ba03912] (000/108) No match (V2 was not tested)

Track Peak [ CRC32  ] [W/O NULL] 
 --  100.0 [CE09E713] [2A699852]           
 01  100.0 [141051D5] [81C99956]           
 02   82.8 [7ED6A60D] [B3A35FAE]           
 03  100.0 [44ED2A51] [4CAFFB89]           
 04   93.4 [C3A338D3] [9D420054]           
 05   83.8 [C8E84F87] [BEB439C1]           
 06  100.0 [F948401F] [FFA69424]           
 07   72.8 [0C47F807] [7AC3558D]           
 08   98.1 [A48B00EB] [81802551]           
 09  100.0 [F84E6FE8] [D2A1BC36]           
 10  100.0 [A371AB83] [5CCBEB50]           
 11  100.0 [5E4A79BB] [D650AF39]           
 12   57.1 [68540C3A] [51F68048]           
 13  100.0 [11A3D678] [4419931A]           
 14  100.0 [4FB4D140] [FD995CAE]           
 15  100.0 [467E6F05] [0BB693DC]           
 16   80.4 [67F8BFF2] [D5497CBA]           
 17  100.0 [E33E1347] [55B27F21]           
 18  100.0 [361436E7] [E4A95D70]           
 19   97.3 [E79F7010] [C7909953]           
 20   87.3 [816308DA] [86ABE9D6]           
 21  100.0 [C02D53F4] [01E53A4A]           
 22  100.0 [6B22862D] [5D5B891B]           
 23  100.0 [F6FE537A] [C7F1DDCD]           
 24  100.0 [14777D84] [41C0A663]           
 25   96.0 [B35ECF3A] [DC91AFAD]           
 26   93.9 [925D9C1E] [5CF38E1E]           
 27   93.2 [F4AEDF11] [C7096E76]           
 28   86.5 [BF478AAE] [9B760294]           
 29  100.0 [AC8B2931] [59B5D6BA]           
 30   87.0 [9106F5F7] [9CE9FF81]           
 31   78.3 [7F3990CD] [AF46C7AC]           
 32   79.5 [363B3715] [5199C237]           



Create a new paste based on this one


Comments: