[ create a new paste ] login | about

Link: http://codepad.org/UsjaM92v    [ raw code | fork ]

Plain Text, pasted on Oct 21:
foobar2000 1.3.10 / Dynamic Range Meter 1.1.1
log date: 2016-10-21 12:43:47

--------------------------------------------------------------------------------
Analyzed: Korn / The Serenity of Suffering (Deluxe)
--------------------------------------------------------------------------------

DR         Peak         RMS     Duration Track
--------------------------------------------------------------------------------
DR5        0.00 dB    -6.26 dB      3:50 01-Insane
DR5        0.00 dB    -7.04 dB      3:33 02-Rotting In Vain
DR5        0.00 dB    -6.58 dB      4:01 03-Black Is The Soul
DR5        0.00 dB    -6.94 dB      4:23 04-The Hating
DR6        0.00 dB    -6.80 dB      3:21 05-A Different World (feat. Corey Taylor)
DR5        0.00 dB    -6.32 dB      3:00 06-Take Me
DR5        0.00 dB    -6.67 dB      4:17 07-Everything Falls Apart
DR5        0.00 dB    -7.22 dB      4:29 08-Die Yet Another Night
DR6        0.00 dB    -6.97 dB      3:25 09-When You're Not There
DR6        0.00 dB    -7.36 dB      3:28 10-Next In Line
DR5        0.00 dB    -6.45 dB      2:54 11-Please Come For Me
DR5        0.00 dB    -6.91 dB      4:56 12-Baby
DR5        0.00 dB    -6.30 dB      3:23 13-Calling Me Too Soon
--------------------------------------------------------------------------------

Number of tracks:  13
Official DR value: DR5

Samplerate:        44100 Hz
Channels:          2
Bits per sample:   16
Bitrate:           1041 kbps
Codec:             FLAC
================================================================================




Create a new paste based on this one


Comments: