[ create a new paste ] login | about

Link: http://codepad.org/V4qDGoaw    [ raw code | fork ]

Plain Text, pasted on Apr 20:
foobar2000 1.3.17 / Dynamic Range Meter 1.1.1
log date: 2018-04-19 21:37:00

--------------------------------------------------------------------------------
Analyzed: ISAO TOMITA / Clair de Lune  Ultimate edition
--------------------------------------------------------------------------------

DR         Peak         RMS     Duration Track
--------------------------------------------------------------------------------
DR12      -2.64 dB   -18.34 dB      2:16 01-The Snow is Dancing
DR10     -13.86 dB   -29.92 dB      1:55 02-Whistle and Chime
DR10      -4.64 dB   -18.65 dB      4:04 03-Arebesque 1
DR11      -0.37 dB   -17.76 dB      5:56 04-Clair de Lune
DR12      -0.75 dB   -18.29 dB      4:06 05-Jardins sous la pluie
DR12      -1.53 dB   -20.11 dB      4:41 06-Des pas sur la neige
DR11      -1.94 dB   -17.14 dB      6:39 07-La cathedrale engloutie
DR17      -0.19 dB   -20.79 dB      3:35 08-Arebesque 2
DR13      -0.34 dB   -19.11 dB      4:49 09-Reverie
DR11      -0.47 dB   -17.58 dB      3:27 10-La fille aux cheveux de lin
DR10      -1.62 dB   -16.26 dB      3:22 11-Passepied
DR11      -0.27 dB   -16.00 dB      2:58 12-Golliwogg's Cakewalk
DR11      -5.22 dB   -19.83 dB      8:21 13-Nuages
--------------------------------------------------------------------------------

Number of tracks:  13
Official DR value: DR12

Samplerate:        88200 Hz
Channels:          2
Bits per sample:   24
Bitrate:           2311 kbps
Codec:             FLAC
================================================================================




Create a new paste based on this one


Comments: