[ create a new paste ] login | about

Link: http://codepad.org/V7q8nldD    [ raw code | fork ]

Plain Text, pasted on May 29:
foobar2000 1.4.4 / Dynamic Range Meter 1.1.1
log date: 2019-05-28 19:28:31

--------------------------------------------------------------------------------
Analyzed: The Rolling Stones / 12 X 5
--------------------------------------------------------------------------------

DR         Peak         RMS     Duration Track
--------------------------------------------------------------------------------
DR11      -0.50 dB   -13.62 dB      3:08 01-Around And Around
DR11      -0.57 dB   -14.23 dB      2:52 02-Confessin' The Blues
DR10      -0.47 dB   -13.56 dB      2:40 03-Empty Heart
DR11      -2.01 dB   -15.43 dB      2:55 04-Time Is On My Side
DR13      -1.89 dB   -18.04 dB      2:36 05-Good Times, Bad Times
DR11      -0.11 dB   -13.53 dB      3:28 06-It's All Over Now
DR10      -0.04 dB   -12.46 dB      2:11 07-2120 South Michigan Avenue
DR10      -1.59 dB   -14.48 dB      2:49 08-Under The Boardwalk
DR11      -0.08 dB   -13.71 dB      2:31 09-Congratulations
DR11      -0.42 dB   -14.64 dB      2:08 10-Grown Up Wrong
DR10      -0.96 dB   -12.43 dB      2:06 11-If You Need Me
DR11      -0.31 dB   -13.59 dB      1:48 12-Susie Q
--------------------------------------------------------------------------------

Number of tracks:  12
Official DR value: DR11

Samplerate:        44100 Hz
Channels:          2
Bits per sample:   16
Bitrate:           798 kbps
Codec:             FLAC
================================================================================




Create a new paste based on this one


Comments: