[ create a new paste ] login | about

Link: http://codepad.org/VGOMHbRU    [ raw code | fork ]

Plain Text, pasted on May 5:
foobar2000 1.3.17 / Dynamic Range Meter 1.1.1
log date: 2018-05-04 00:35:02

--------------------------------------------------------------------------------
Analyzed: Art Garfunkel / Angel Clair
--------------------------------------------------------------------------------

DR         Peak         RMS     Duration Track
--------------------------------------------------------------------------------
DR7       -6.46 dB   -23.65 dB      5:23 01-Traveling Boy  
DR8       -8.38 dB   -24.96 dB      4:01 02-Down in the Willow Garden  
DR8       -7.35 dB   -24.68 dB      3:32 03-I Shall Sing  
DR7       -8.22 dB   -26.36 dB      3:26 04-Old Man  
DR8       -8.06 dB   -24.75 dB      3:11 05-Feuilles Oh  Do Space Men Pass
DR8       -7.09 dB   -25.17 dB      3:50 06-All I Know  
DR8       -7.31 dB   -23.83 dB      3:27 07-Mary Was an Only Child  
DR8       -6.37 dB   -23.76 dB      3:24 08-Woyaya 
DR8       -8.12 dB   -26.17 dB      5:27 09-Barbara Allen  
DR8       -8.11 dB   -25.96 dB      3:39 10-Another Lullaby  
--------------------------------------------------------------------------------

Number of tracks:  10
Official DR value: DR8

Samplerate:        2822400 Hz / PCM Samplerate: 176400 Hz
Channels:          6
Bits per sample:   1
Bitrate:           16934 kbps
Codec:             DST64
================================================================================

--------------------------------------------------------------------------------
Analyzed: Art Garfunkel / Angel Clair
--------------------------------------------------------------------------------

DR         Peak         RMS     Duration Track
--------------------------------------------------------------------------------
DR11      -5.98 dB   -19.98 dB      5:01 01-Traveling Boy  
DR10      -7.94 dB   -20.88 dB      4:00 02-Down in the Willow Garden  
DR13      -5.89 dB   -21.35 dB      3:37 03-I Shall Sing  
DR10      -7.55 dB   -22.25 dB      3:25 04-Old Man  
DR12      -7.00 dB   -21.38 dB      3:10 05-Feuilles Oh  Do Space Men Pass
DR11      -7.65 dB   -20.98 dB      3:50 06-All I Know  
DR11      -7.05 dB   -20.22 dB      3:26 07-Mary Was an Only Child  
DR10      -7.44 dB   -20.38 dB      3:23 08-Woyaya 
DR10      -8.60 dB   -22.03 dB      5:27 09-Barbara Allen  
DR11      -8.23 dB   -22.90 dB      3:34 10-Another Lullaby  
--------------------------------------------------------------------------------

Number of tracks:  10
Official DR value: DR11

Samplerate:        2822400 Hz / PCM Samplerate: 176400 Hz
Channels:          2
Bits per sample:   1
Bitrate:           5645 kbps
Codec:             DST64
================================================================================




Create a new paste based on this one


Comments: