[ create a new paste ] login | about

Link: http://codepad.org/VHPRxXfO    [ raw code | fork ]

Plain Text, pasted on Jun 20:
foobar2000 1.3.17 / Dynamic Range Meter 1.1.1
log date: 2018-06-20 11:42:18

--------------------------------------------------------------------------------
Analyzed: The Moody Blues / To Our Children's Children's Children  (MFSL 1-253)
--------------------------------------------------------------------------------

DR         Peak         RMS     Duration Track
--------------------------------------------------------------------------------
DR9       -0.32 dB   -12.30 dB      4:07 01-Higher and Higher
DR12      -4.14 dB   -21.43 dB      3:24 02-Eyes of a Child I
DR10      -3.03 dB   -15.49 dB      3:00 03-Floating
DR9       -1.31 dB   -13.80 dB      1:22 04-Eyes of a Child II
DR12      -6.80 dB   -24.34 dB      1:06 05-I Never Thought I'd Live to be a Hundred
DR10      -3.88 dB   -17.71 dB      2:58 06-Beyond
DR11      -0.97 dB   -13.69 dB      3:47 07-Out and In
DR9       -0.72 dB   -12.54 dB      3:33 08-Gypsy
DR10      -1.28 dB   -14.05 dB      4:19 09-Eternity Road
DR10      -2.73 dB   -15.60 dB      4:17 10-Candle of Life
DR9       -1.43 dB   -11.98 dB      3:38 11-Sun Is Still Shining
DR10      -7.48 dB   -23.94 dB      0:33 12-I Never Thought I'd Live to be a Million
DR10      -0.62 dB   -15.67 dB      4:19 13-Watching and Waiting
--------------------------------------------------------------------------------

Number of tracks:  13
Official DR value: DR10

Samplerate:        44100 Hz
Channels:          2
Bits per sample:   16
Bitrate:           759 kbps
Codec:             FLAC
================================================================================




Create a new paste based on this one


Comments: