[ create a new paste ] login | about

Link: http://codepad.org/VKGRuu8Y    [ raw code | fork ]

Plain Text, pasted on Mar 7:
foobar2000 1.5 / Dynamic Range Meter 1.1.1
log date: 2020-03-07 19:10:24

--------------------------------------------------------------------------------
Analyzed: Sarah Brightman / Eden
--------------------------------------------------------------------------------

DR         Peak         RMS     Duration Track
--------------------------------------------------------------------------------
DR8       -0.28 dB   -10.33 dB      3:11 01-In Paradisum
DR5       -0.17 dB    -7.33 dB      4:00 02-Eden
DR6       -0.17 dB    -8.02 dB      2:58 03-So Many Things
DR7       -0.17 dB    -9.01 dB      3:20 04-Anytime, Anywhere
DR7       -0.31 dB    -9.78 dB      3:14 05-Bailero
DR8       -0.24 dB   -10.20 dB      3:42 06-Dust In The Wind
DR6       -0.30 dB    -8.36 dB      4:29 07-Il Mio Cuore Va
DR6       -0.22 dB    -8.65 dB      4:01 08-Deliver Me
DR6       -0.32 dB    -8.81 dB      3:40 09-Un Jour Il Viendra
DR7       -0.27 dB   -10.25 dB      3:39 10-Nella Fantasia
DR7       -0.21 dB   -11.20 dB      4:10 11-Tu
DR6       -0.28 dB    -8.76 dB      3:31 12-Lascia Ch'io Pianga
DR6       -0.11 dB    -8.36 dB      4:56 13-Only An Ocean Away
DR6       -0.31 dB    -8.67 dB      3:19 14-Scene D'Amour
DR7       -0.31 dB   -12.31 dB      3:06 15-Nessun Dorma
DR5       -0.33 dB    -8.78 dB      4:11 16-The Last Words You Said
--------------------------------------------------------------------------------

Number of tracks:  16
Official DR value: DR7

Samplerate:        88200 Hz
Channels:          2
Bits per sample:   24
Bitrate:           2709 kbps
Codec:             FLAC
================================================================================




Create a new paste based on this one


Comments: