[ create a new paste ] login | about

Link: http://codepad.org/VNeSsjfu    [ raw code | fork ]

Plain Text, pasted on May 8:
foobar2000 1.4.1 / Dynamic Range Meter 1.1.1
log date: 2019-05-07 23:13:10

--------------------------------------------------------------------------------
Analyzed: MILES DAVIS / QUIET NIGHTS
--------------------------------------------------------------------------------

DR         Peak         RMS     Duration Track
--------------------------------------------------------------------------------
DR9       -2.98 dB   -15.27 dB      1:43 01-Song No. 2
DR9       -2.18 dB   -14.00 dB      3:30 02-Once Upon A Summertime
DR10      -1.89 dB   -14.61 dB      4:20 03-Aos Pes Da Cruz
DR9       -3.00 dB   -15.47 dB      4:38 04-Song No. 1
DR9       -1.40 dB   -14.24 dB      4:07 05-Wait Till You See Her
DR9       -1.82 dB   -13.70 dB      2:45 06-Corcovado
DR13      -1.48 dB   -18.51 dB      6:06 07-Summer Night
DR12      -0.01 dB   -15.26 dB     12:46 08-The Time Of The Barracudas
--------------------------------------------------------------------------------

Number of tracks:  8
Official DR value: DR10

Samplerate:        88200 Hz
Channels:          2
Bits per sample:   24
Bitrate:           2677 kbps
Codec:             FLAC
================================================================================




Create a new paste based on this one


Comments: