[ create a new paste ] login | about

Link: http://codepad.org/VOIPWjRQ    [ raw code | fork ]

Plain Text, pasted on Sep 24:
American Tour (1964)
->
foobar2000 1.4.6 / Dynamic Range Meter 1.1.1
log date: 2019-09-23 16:08:06

--------------------------------------------------------------------------------
Analyzed: The Dave Clark Five / American Tour (2019 - Remaster)
--------------------------------------------------------------------------------

DR         Peak         RMS     Duration Track
--------------------------------------------------------------------------------
DR10      -1.01 dB   -11.52 dB      2:22 01-Because 
DR10      -1.01 dB   -11.59 dB      2:14 02-Move On 
DR9       -1.01 dB   -11.34 dB      2:54 03-Whenever You're Around 
DR10      -1.01 dB   -12.25 dB      1:37 04-I Want You Still 
DR10      -1.02 dB   -12.41 dB      2:13 05-Long Ago 
DR10      -1.01 dB   -11.99 dB      2:57 06-Blue Monday 
DR9       -1.01 dB   -11.22 dB      2:52 07-Sometimes 
DR10      -1.03 dB   -12.14 dB      2:13 08-Any Time You Want Love 
DR10      -1.02 dB   -12.61 dB      2:29 09-I Cried Over You 
DR9       -1.03 dB   -11.75 dB      2:01 10-Ol' Sol 
DR10      -1.01 dB   -11.79 dB      1:52 11-At the Scene 
--------------------------------------------------------------------------------

Number of tracks:  11
Official DR value: DR10

Samplerate:        96000 Hz
Channels:          2
Bits per sample:   24
Bitrate:           2889 kbps
Codec:             FLAC
================================================================================
->
=========================================================================================================================================================
->
Glad All Over (1964)
->
foobar2000 1.4.4 / Dynamic Range Meter 1.1.1
log date: 2019-07-25 11:33:24

--------------------------------------------------------------------------------
Analyzed: The Dave Clark Five / Glad All Over (2019 - Remaster)
--------------------------------------------------------------------------------

DR         Peak         RMS     Duration Track
--------------------------------------------------------------------------------
DR9       -1.01 dB   -11.18 dB      2:43 01-Glad All Over 
DR10      -1.01 dB   -12.03 dB      2:15 02-All of the Time 
DR11      -1.01 dB   -12.67 dB      2:09 03-Crying Over You 
DR9       -1.01 dB   -11.60 dB      2:10 04-Stay 
DR10      -1.01 dB   -12.16 dB      2:13 05-Chaquita 
DR9       -1.42 dB   -11.12 dB      2:44 06-Do You Love Me 
DR11      -1.02 dB   -12.46 dB      1:59 07-Bits and Pieces 
DR10      -1.01 dB   -11.50 dB      2:00 08-I Know You 
DR10      -1.01 dB   -11.60 dB      2:08 09-3406 
DR10      -1.01 dB   -12.50 dB      2:19 10-Time 
DR9       -1.01 dB   -11.22 dB      2:11 11-Who Do You Think You're Talking To 
--------------------------------------------------------------------------------

Number of tracks:  11
Official DR value: DR10

Samplerate:        96000 Hz
Channels:          2
Bits per sample:   24
Bitrate:           2948 kbps
Codec:             FLAC
================================================================================
->
=========================================================================================================================================================
->
Catch Us If You Can (1965)
->
foobar2000 1.4.6 / Dynamic Range Meter 1.1.1
log date: 2019-09-23 15:47:49

--------------------------------------------------------------------------------
Analyzed: The Dave Clark Five / Catch Us If You Can (2019 - Remaster)
--------------------------------------------------------------------------------

DR         Peak         RMS     Duration Track
--------------------------------------------------------------------------------
DR11      -1.01 dB   -13.22 dB      1:55 01-Catch Us If You Can 
DR10      -1.03 dB   -12.70 dB      2:23 02-On the Move 
DR11      -1.03 dB   -12.30 dB      2:51 03-If You Come Back 
DR10      -1.03 dB   -12.42 dB      2:13 04-Long Ago 
DR10      -1.03 dB   -12.14 dB      2:13 05-Any Time You Want Love 
DR10      -1.02 dB   -11.82 dB      1:23 06-I Can't Stand It 
DR10      -1.02 dB   -11.56 dB      3:14 07-Your Turn to Cry 
DR9       -1.02 dB   -11.63 dB      2:39 08-Hurtin' Inside 
DR10      -1.03 dB   -11.22 dB      2:24 09-Don't Be Taken In 
DR11      -1.03 dB   -13.56 dB      3:39 10-Don't You Realize 
DR10      -1.02 dB   -12.61 dB      2:29 11-I Cried Over You 
DR10      -1.02 dB   -12.42 dB      2:45 12-Sweet Memories 
DR10      -1.03 dB   -11.36 dB      2:30 13-When 
DR11      -1.03 dB   -12.26 dB      1:52 14-Having a Wild Weekend 
--------------------------------------------------------------------------------

Number of tracks:  14
Official DR value: DR10

Samplerate:        96000 Hz
Channels:          2
Bits per sample:   24
Bitrate:           2827 kbps
Codec:             FLAC
================================================================================
->
=========================================================================================================================================================
->
Coast To Coast (1965)
->
foobar2000 1.4.4 / Dynamic Range Meter 1.1.1
log date: 2019-07-25 11:33:46

--------------------------------------------------------------------------------
Analyzed: The Dave Clark Five / Coast to Coast (2019 - Remaster)
--------------------------------------------------------------------------------

DR         Peak         RMS     Duration Track
--------------------------------------------------------------------------------
DR10      -1.02 dB   -11.23 dB      2:30 01-Any Way You Want It  (2019 - Remaster)
DR10      -1.01 dB   -11.57 dB      1:59 02-I Can't Stop Loving You  (2019 - Remaster)
DR10      -1.02 dB   -11.82 dB      1:23 03-I Can't Stand It  (2019 - Remaster)
DR9       -1.02 dB   -11.59 dB      1:50 04-What Is There to Say  (2019 - Remaster)
DR10      -1.01 dB   -12.75 dB      1:41 05-Everybody Knows (I Still Love You)  (2019 - Remaster)
DR11      -1.01 dB   -12.67 dB      2:09 06-Crying Over You  (2019 - Remaster)
DR9       -1.00 dB   -11.33 dB      1:45 07-Say You Want Me  (2019 - Remaster)
DR10      -1.03 dB   -11.36 dB      2:30 08-When  (2019 - Remaster)
DR10      -1.01 dB   -11.25 dB      1:50 09-Forget  (2019 - Remaster)
DR10      -1.01 dB   -11.52 dB      1:45 10-To Me  (2019 - Remaster)
DR8       -1.02 dB   -10.60 dB      1:57 11-Good Time Woman  (2019 - Remaster)
--------------------------------------------------------------------------------

Number of tracks:  11
Official DR value: DR10

Samplerate:        96000 Hz
Channels:          2
Bits per sample:   24
Bitrate:           2622 kbps
Codec:             FLAC
================================================================================
->
=========================================================================================================================================================
->
Everybody Knows (1967)
->
foobar2000 1.4.4 / Dynamic Range Meter 1.1.1
log date: 2019-07-25 11:34:14

--------------------------------------------------------------------------------
Analyzed: The Dave Clark Five / Everybody Knows (2019 - Remaster)
--------------------------------------------------------------------------------

DR         Peak         RMS     Duration Track
--------------------------------------------------------------------------------
DR9       -1.36 dB   -13.14 dB      2:20 01-Everybody Knows 
DR9       -1.03 dB   -12.28 dB      2:45 02-A Little Bit Strong 
DR9       -1.01 dB   -11.61 dB      2:25 03-At the Place 
DR9       -1.02 dB   -11.66 dB      2:48 04-Inside and Out 
DR10      -1.01 dB   -11.88 dB      2:31 05-Red and Blue 
DR9       -1.01 dB   -11.59 dB      2:18 06-You Must Have Been a Beautiful Baby 
DR11      -1.01 dB   -13.02 dB      2:05 07-Good Love Is Hard to Find 
DR10      -1.02 dB   -11.57 dB      2:00 08-Lost in His Dreams 
DR10      -1.00 dB   -11.98 dB      2:32 09-Concentration Baby 
DR8       -2.03 dB   -11.64 dB      2:08 10-Hold On Tight 
DR10      -1.11 dB   -12.73 dB      2:36 11-I'll Do the Best I Can 
--------------------------------------------------------------------------------

Number of tracks:  11
Official DR value: DR10

Samplerate:        96000 Hz
Channels:          2
Bits per sample:   24
Bitrate:           2889 kbps
Codec:             FLAC
================================================================================
->
=========================================================================================================================================================
->
The Hits (2008)
->
foobar2000 1.4.4 / Dynamic Range Meter 1.1.1
log date: 2019-07-25 11:35:21

--------------------------------------------------------------------------------
Analyzed: The Dave Clark Five / The Hits (2019 - Remaster)
--------------------------------------------------------------------------------

DR         Peak         RMS     Duration Track
--------------------------------------------------------------------------------
DR9       -1.42 dB   -11.12 dB      2:44 01-Do You Love Me 
DR9       -1.01 dB   -11.18 dB      2:43 02-Glad All Over 
DR11      -1.02 dB   -12.46 dB      1:59 03-Bits and Pieces 
DR9       -1.01 dB   -11.66 dB      2:22 04-Can't You See That She's Mine 
DR10      -1.01 dB   -12.75 dB      1:41 05-Everybody Knows (I Still Love You) 
DR10      -1.02 dB   -11.74 dB      1:43 06-Don't Let Me Down 
DR10      -1.02 dB   -11.23 dB      2:30 07-Any Way You Want It 
DR11      -1.02 dB   -12.13 dB      1:51 08-Wild Weekend 
DR11      -1.01 dB   -13.22 dB      1:55 09-Catch Us If You Can 
DR10      -1.01 dB   -11.52 dB      2:22 10-Because 
DR10      -1.02 dB   -11.98 dB      1:38 11-I Like it Like That 
DR10      -1.02 dB   -11.98 dB      2:47 12-Reelin' and Rockin' 
DR11      -1.00 dB   -12.42 dB      2:00 13-Over and Over 
DR11      -1.01 dB   -13.81 dB      2:48 14-Come Home 
DR8       -1.01 dB   -10.51 dB      2:58 15-You Got What It Takes 
DR10      -1.02 dB   -11.98 dB      2:08 16-Try Too Hard 
DR9       -1.36 dB   -13.14 dB      2:20 17-Everybody Knows 
DR10      -1.03 dB   -12.42 dB      2:42 18-I'll Be Yours My Love 
DR9       -1.02 dB   -11.27 dB      1:50 19-Nineteen Days 
DR10      -1.03 dB   -11.87 dB      2:19 20-Look Before You Leap 
DR10      -3.09 dB   -14.39 dB      1:55 21-'Til the Right One Comes Along 
DR10      -1.40 dB   -12.35 dB      3:11 22-All Night Long 
DR10      -1.02 dB   -12.18 dB      3:27 23-Good Old Rock 'N' Roll  
DR10      -1.01 dB   -12.31 dB      3:16 24-Sha-Na-Na Hey Hey Kiss Him Goodbye 
DR10      -1.02 dB   -11.43 dB      2:55 25-Here Comes Summer 
DR10      -1.01 dB   -11.99 dB      2:56 26-Put a Little Love in Your Heart 
DR9       -1.02 dB   -12.77 dB      3:17 27-Everybody Get Together 
DR10      -1.01 dB   -12.67 dB      4:09 28-Universal Love 
--------------------------------------------------------------------------------

Number of tracks:  28
Official DR value: DR10

Samplerate:        96000 Hz
Channels:          2
Bits per sample:   24
Bitrate:           2876 kbps
Codec:             FLAC
================================================================================



Create a new paste based on this one


Comments: