[ create a new paste ] login | about

Link: http://codepad.org/VONAJwA1    [ raw code | fork ]

Plain Text, pasted on Jul 31:
foobar2000 1.3.17 / Dynamic Range Meter 1.1.1
log date: 2018-07-31 13:05:06

--------------------------------------------------------------------------------
Analyzed: Keb' Mo' / The Door
--------------------------------------------------------------------------------

DR         Peak         RMS     Duration Track
--------------------------------------------------------------------------------
DR8       -0.01 dB    -8.98 dB      4:00 01-The Door
DR8       -3.38 dB   -13.45 dB      4:35 02-Loola Loo
DR8       -0.20 dB    -9.00 dB      5:28 03-It Hurts Me Too
DR8       -0.41 dB    -9.76 dB      4:58 04-Come On Back
DR6       -0.58 dB    -8.24 dB      2:26 05-Stand Up (And Be Strong)
DR8       -3.55 dB   -13.85 dB      3:36 06-Anyway
DR8       -0.43 dB    -9.75 dB      4:21 07-Don't You Know
DR8       -0.20 dB    -9.53 dB      4:48 08-It's All Coming Back
DR9       -0.14 dB    -9.72 dB      4:11 09-Gimme What You Got
DR9       -3.68 dB   -15.78 dB      3:11 10-Mommy Can I Come Home
DR7       -0.20 dB    -9.48 dB      4:12 11-Change
DR8       -2.62 dB   -12.38 dB      3:41 12-The Beginning
--------------------------------------------------------------------------------

Number of tracks:  12
Official DR value: DR8

Samplerate:        88200 Hz
Channels:          2
Bits per sample:   24
Bitrate:           2611 kbps
Codec:             FLAC
================================================================================




Create a new paste based on this one


Comments: