[ create a new paste ] login | about

Link: http://codepad.org/VPfINXWE    [ raw code | fork ]

Plain Text, pasted on Dec 29:
Exact Audio Copy V1.3 from 2. September 2016

EAC extraction logfile from 18. December 2018, 9:31

Kate Bush / The Red Shoes

Used drive  : PLEXTOR BD-R  PX-B950SA   Adapter: 1  ID: 1

Read mode               : Secure
Utilize accurate stream : Yes
Defeat audio cache      : Yes
Make use of C2 pointers : No

Read offset correction                      : 6
Overread into Lead-In and Lead-Out          : No
Fill up missing offset samples with silence : Yes
Delete leading and trailing silent blocks   : No
Null samples used in CRC calculations       : Yes
Used interface                              : Native Win32 interface for Win NT & 2000

Used output format : Internal WAV Routines
Sample format      : 44.100 Hz; 16 Bit; Stereo


TOC of the extracted CD

     Track |   Start  |  Length  | Start sector | End sector 
    ---------------------------------------------------------
        1  |  0:00.00 |  4:44.59 |         0    |    21358   
        2  |  4:44.59 |  4:19.56 |     21359    |    40839   
        3  |  9:04.40 |  4:52.56 |     40840    |    62795   
        4  | 13:57.21 |  5:18.45 |     62796    |    86690   
        5  | 19:15.66 |  4:26.37 |     86691    |   106677   
        6  | 23:42.28 |  3:53.01 |    106678    |   124153   
        7  | 27:35.29 |  4:02.29 |    124154    |   142332   
        8  | 31:37.58 |  4:13.65 |    142333    |   161372   
        9  | 35:51.48 |  4:46.59 |    161373    |   182881   
       10  | 40:38.32 |  3:28.72 |    182882    |   198553   
       11  | 44:07.29 |  5:02.06 |    198554    |   221209   
       12  | 49:09.35 |  5:53.57 |    221210    |   247741   


Range status and errors

Selected range

     Filename C:\Kate Bush\2018 Remastered Part I (7CD Box Set Parlophone Records)\1993 The Red Shoes\Kate Bush - The Red Shoes.wav

     Peak level 95.9 %
     Extraction speed 3.4 X
     Range quality 100.0 %
     Test CRC 2EAE17ED
     Copy CRC 2EAE17ED
     Copy OK

No errors occurred

 
AccurateRip summary
 
Track  1  not present in database
Track  2  not present in database
Track  3  not present in database
Track  4  not present in database
Track  5  not present in database
Track  6  not present in database
Track  7  not present in database
Track  8  not present in database
Track  9  not present in database
Track 10  not present in database
Track 11  not present in database
Track 12  not present in database
 
None of the tracks are present in the AccurateRip database

End of status report

---- CUETools DB Plugin V2.1.6

[CTDB TOCID: Hr_nJ0n1laoM9iQyIDx6nug3K44-] found
Submit result: Hr_nJ0n1laoM9iQyIDx6nug3K44- has been confirmed
Track | CTDB Status
  1   | (75/75) Accurately ripped
  2   | (75/75) Accurately ripped
  3   | (75/75) Accurately ripped
  4   | (75/75) Accurately ripped
  5   | (75/75) Accurately ripped
  6   | (75/75) Accurately ripped
  7   | (75/75) Accurately ripped
  8   | (75/75) Accurately ripped
  9   | (75/75) Accurately ripped
 10   | (75/75) Accurately ripped
 11   | (75/75) Accurately ripped
 12   | (75/75) Accurately ripped


==== Log checksum EB22411827EDF3CF52E5A4F712027F9EFD6D54909CB4538BA7B2E48D5B1AF4E9 ====



Create a new paste based on this one


Comments: