[ create a new paste ] login | about

Link: http://codepad.org/VS7XVRSN    [ raw code | fork ]

Plain Text, pasted on Sep 6:
Disc 1
->
foobar2000 1.5 / Dynamic Range Meter 1.1.1
log date: 2020-09-06 01:49:02

--------------------------------------------------------------------------------
Analyzed: The Rolling Stones / Goats Head Soup (2020 Deluxe)
--------------------------------------------------------------------------------

DR         Peak         RMS     Duration Track
--------------------------------------------------------------------------------
DR6       -0.09 dB    -7.28 dB      4:52 01-Dancing With Mr D (2020)
DR6       -0.10 dB    -7.90 dB      3:58 02-100 Years Ago (2020)
DR7       -0.16 dB    -9.57 dB      5:54 03-Coming Down Again (2020)
DR6       -0.15 dB    -7.20 dB      3:27 04-Doo Doo Doo Doo Doo (Heartbreaker) (2020)
DR7       -0.10 dB    -9.05 dB      4:32 05-Angie (2020)
DR4       -0.03 dB    -5.56 dB      4:26 06-Silver Train (2020)
DR6       -0.11 dB    -7.01 dB      4:12 07-Hide Your Love (2020)
DR7       -0.16 dB    -8.42 dB      5:29 08-Winter (2020)
DR7        0.00 dB    -8.59 dB      5:32 09-Can You Hear The Music (2020)
DR5       -0.10 dB    -6.60 dB      4:24 10-Star Star (2020)
--------------------------------------------------------------------------------

Number of tracks:  10
Official DR value: DR6

Samplerate:        44100 Hz
Channels:          2
Bits per sample:   16
Bitrate:           898 kbps
Codec:             FLAC
================================================================================
->
*********************************************************************************************************************************************************
*********************************************************************************************************************************************************
->
Disc 2
->
foobar2000 1.5 / Dynamic Range Meter 1.1.1
log date: 2020-09-06 01:49:28

--------------------------------------------------------------------------------
Analyzed: The Rolling Stones / Goats Head Soup (2020 Deluxe)
--------------------------------------------------------------------------------

DR         Peak         RMS     Duration Track
--------------------------------------------------------------------------------
DR7        0.00 dB    -7.87 dB      3:44 01-Scarlet
DR6       -0.07 dB    -6.93 dB      4:11 02-All The Rage
DR7        0.00 dB    -7.36 dB      4:32 03-Criss Cross
DR9       -0.17 dB   -11.24 dB      2:43 04-100 Years Ago (Piano Demo)
DR7       -0.02 dB    -8.47 dB      3:31 05-Dancing With Mr D (Instrumental)
DR7        0.00 dB    -9.69 dB      3:18 06-Heartbreaker (Instrumental)
DR7        0.00 dB    -7.78 dB      5:18 07-Hide Your Love (Alternate Mix)
DR6       -0.11 dB    -7.69 dB      4:34 08-Dancing With Mr D
DR7       -0.12 dB    -9.49 dB      3:26 09-Doo Doo Doo Doo Doo (Heartbreaker)
DR7       -0.14 dB    -8.21 dB      4:31 10-Silver Train
DR9       -0.09 dB   -10.90 dB      3:49 11-Scarlet (The War On Drugs Remix)
DR9       -0.17 dB   -11.30 dB      3:14 12-Scarlet (The Killers & Jacques Lu Cont Remix)
--------------------------------------------------------------------------------

Number of tracks:  12
Official DR value: DR7

Samplerate:        44100 Hz
Channels:          2
Bits per sample:   16
Bitrate:           925 kbps
Codec:             FLAC
================================================================================
->
*********************************************************************************************************************************************************
*********************************************************************************************************************************************************
->
Disc 3
->
foobar2000 1.5 / Dynamic Range Meter 1.1.1
log date: 2020-09-06 01:49:56

--------------------------------------------------------------------------------
Analyzed: The Rolling Stones / Goats Head Soup (2020 Deluxe)
--------------------------------------------------------------------------------

DR         Peak         RMS     Duration Track
--------------------------------------------------------------------------------
DR7        0.00 dB    -8.22 dB      3:56 01-Brown Sugar (Live - Forest National Arena, Brussels - 17-10-73)
DR7        0.00 dB    -8.76 dB      5:33 02-Gimme Shelter (Live - Forest National Arena, Brussels - 17-10-73)
DR7        0.00 dB    -7.99 dB      3:14 03-Happy (Live - Forest National Arena, Brussels - 17-10-73)
DR7        0.00 dB    -8.49 dB      5:04 04-Tumbling Dice (Live - Forest National Arena, Brussels - 17-10-73)
DR7        0.00 dB    -7.62 dB      4:16 05-Star Star (Live - Forest National Arena, Brussels - 17-10-73)
DR7        0.00 dB    -8.14 dB      4:38 06-Dancing With Mr D (Live - Forest National Arena, Brussels - 17-10-73)
DR7        0.00 dB    -8.07 dB      5:03 07-Doo Doo Doo Doo Doo (Heartbreaker) (Live - Forest National Arena, Brussels - 17-10-73)
DR8       -0.01 dB   -10.23 dB      5:15 08-Angie (Live - Forest National Arena, Brussels - 17-10-73)
DR7        0.00 dB    -8.20 dB     11:01 09-You Can't Always Get What You Want (Live - Forest National Arena, Brussels - 17-10-73)
DR6        0.00 dB    -7.80 dB     12:53 10-Midnight Rambler (Live - Forest National Arena, Brussels - 17-10-73)
DR6        0.00 dB    -7.27 dB      3:12 11-Honky Tonk Women (Live - Forest National Arena, Brussels - 17-10-73)
DR6        0.00 dB    -7.12 dB      4:21 12-All Down The Line (Live - Forest National Arena, Brussels - 17-10-73)
DR6        0.00 dB    -7.39 dB      2:25 13-Rip This Joint (Live - Forest National Arena, Brussels - 17-10-73)
DR6        0.00 dB    -6.28 dB      3:27 14-Jumpin' Jack Flash (Live - Forest National Arena, Brussels - 17-10-73)
DR5        0.00 dB    -6.13 dB      5:15 15-Street Fighting Man (Live - Forest National Arena, Brussels - 17-10-73)
--------------------------------------------------------------------------------

Number of tracks:  15
Official DR value: DR7

Samplerate:        44100 Hz
Channels:          2
Bits per sample:   16
Bitrate:           1017 kbps
Codec:             FLAC
================================================================================

Disc 1
->
foobar2000 1.5 / Dynamic Range Meter 1.1.1
log date: 2020-09-06 01:49:02

--------------------------------------------------------------------------------
Analyzed: The Rolling Stones / Goats Head Soup (2020 Deluxe)
--------------------------------------------------------------------------------

DR         Peak         RMS     Duration Track
--------------------------------------------------------------------------------
DR6       -0.09 dB    -7.28 dB      4:52 01-Dancing With Mr D (2020)
DR6       -0.10 dB    -7.90 dB      3:58 02-100 Years Ago (2020)
DR7       -0.16 dB    -9.57 dB      5:54 03-Coming Down Again (2020)
DR6       -0.15 dB    -7.20 dB      3:27 04-Doo Doo Doo Doo Doo (Heartbreaker) (2020)
DR7       -0.10 dB    -9.05 dB      4:32 05-Angie (2020)
DR4       -0.03 dB    -5.56 dB      4:26 06-Silver Train (2020)
DR6       -0.11 dB    -7.01 dB      4:12 07-Hide Your Love (2020)
DR7       -0.16 dB    -8.42 dB      5:29 08-Winter (2020)
DR7        0.00 dB    -8.59 dB      5:32 09-Can You Hear The Music (2020)
DR5       -0.10 dB    -6.60 dB      4:24 10-Star Star (2020)
--------------------------------------------------------------------------------

Number of tracks:  10
Official DR value: DR6

Samplerate:        44100 Hz
Channels:          2
Bits per sample:   16
Bitrate:           898 kbps
Codec:             FLAC
================================================================================
->
*********************************************************************************************************************************************************
*********************************************************************************************************************************************************
->
Disc 2
->
foobar2000 1.5 / Dynamic Range Meter 1.1.1
log date: 2020-09-06 01:49:28

--------------------------------------------------------------------------------
Analyzed: The Rolling Stones / Goats Head Soup (2020 Deluxe)
--------------------------------------------------------------------------------

DR         Peak         RMS     Duration Track
--------------------------------------------------------------------------------
DR7        0.00 dB    -7.87 dB      3:44 01-Scarlet
DR6       -0.07 dB    -6.93 dB      4:11 02-All The Rage
DR7        0.00 dB    -7.36 dB      4:32 03-Criss Cross
DR9       -0.17 dB   -11.24 dB      2:43 04-100 Years Ago (Piano Demo)
DR7       -0.02 dB    -8.47 dB      3:31 05-Dancing With Mr D (Instrumental)
DR7        0.00 dB    -9.69 dB      3:18 06-Heartbreaker (Instrumental)
DR7        0.00 dB    -7.78 dB      5:18 07-Hide Your Love (Alternate Mix)
DR6       -0.11 dB    -7.69 dB      4:34 08-Dancing With Mr D
DR7       -0.12 dB    -9.49 dB      3:26 09-Doo Doo Doo Doo Doo (Heartbreaker)
DR7       -0.14 dB    -8.21 dB      4:31 10-Silver Train
DR9       -0.09 dB   -10.90 dB      3:49 11-Scarlet (The War On Drugs Remix)
DR9       -0.17 dB   -11.30 dB      3:14 12-Scarlet (The Killers & Jacques Lu Cont Remix)
--------------------------------------------------------------------------------

Number of tracks:  12
Official DR value: DR7

Samplerate:        44100 Hz
Channels:          2
Bits per sample:   16
Bitrate:           925 kbps
Codec:             FLAC
================================================================================
->
*********************************************************************************************************************************************************
*********************************************************************************************************************************************************
->
Disc 3
->
foobar2000 1.5 / Dynamic Range Meter 1.1.1
log date: 2020-09-06 01:49:56

--------------------------------------------------------------------------------
Analyzed: The Rolling Stones / Goats Head Soup (2020 Deluxe)
--------------------------------------------------------------------------------

DR         Peak         RMS     Duration Track
--------------------------------------------------------------------------------
DR7        0.00 dB    -8.22 dB      3:56 01-Brown Sugar (Live - Forest National Arena, Brussels - 17-10-73)
DR7        0.00 dB    -8.76 dB      5:33 02-Gimme Shelter (Live - Forest National Arena, Brussels - 17-10-73)
DR7        0.00 dB    -7.99 dB      3:14 03-Happy (Live - Forest National Arena, Brussels - 17-10-73)
DR7        0.00 dB    -8.49 dB      5:04 04-Tumbling Dice (Live - Forest National Arena, Brussels - 17-10-73)
DR7        0.00 dB    -7.62 dB      4:16 05-Star Star (Live - Forest National Arena, Brussels - 17-10-73)
DR7        0.00 dB    -8.14 dB      4:38 06-Dancing With Mr D (Live - Forest National Arena, Brussels - 17-10-73)
DR7        0.00 dB    -8.07 dB      5:03 07-Doo Doo Doo Doo Doo (Heartbreaker) (Live - Forest National Arena, Brussels - 17-10-73)
DR8       -0.01 dB   -10.23 dB      5:15 08-Angie (Live - Forest National Arena, Brussels - 17-10-73)
DR7        0.00 dB    -8.20 dB     11:01 09-You Can't Always Get What You Want (Live - Forest National Arena, Brussels - 17-10-73)
DR6        0.00 dB    -7.80 dB     12:53 10-Midnight Rambler (Live - Forest National Arena, Brussels - 17-10-73)
DR6        0.00 dB    -7.27 dB      3:12 11-Honky Tonk Women (Live - Forest National Arena, Brussels - 17-10-73)
DR6        0.00 dB    -7.12 dB      4:21 12-All Down The Line (Live - Forest National Arena, Brussels - 17-10-73)
DR6        0.00 dB    -7.39 dB      2:25 13-Rip This Joint (Live - Forest National Arena, Brussels - 17-10-73)
DR6        0.00 dB    -6.28 dB      3:27 14-Jumpin' Jack Flash (Live - Forest National Arena, Brussels - 17-10-73)
DR5        0.00 dB    -6.13 dB      5:15 15-Street Fighting Man (Live - Forest National Arena, Brussels - 17-10-73)
--------------------------------------------------------------------------------

Number of tracks:  15
Official DR value: DR7

Samplerate:        44100 Hz
Channels:          2
Bits per sample:   16
Bitrate:           1017 kbps
Codec:             FLAC
================================================================================




Create a new paste based on this one


Comments: