[ create a new paste ] login | about

Link: http://codepad.org/VWLZHQol    [ raw code | fork ]

Plain Text, pasted on Dec 17:
[CUETools log; Date: 12/17/2016 6:41:29 AM; Version: 2.1.5]
[CTDB TOCID: 1Voxkaj8jHxk1GwZmyLbutaBY2c-] found.
Track | CTDB Status
  1   | (70/70) Accurately ripped
  2   | (69/70) Accurately ripped, or (1/70) differs in 1 samples @02:16:24
  3   | (70/70) Accurately ripped
  4   | (70/70) Accurately ripped
  5   | (69/70) Accurately ripped, or (1/70) differs in 1 samples @02:35:33
  6   | (70/70) Accurately ripped
  7   | (69/70) Accurately ripped
  8   | (70/70) Accurately ripped
[AccurateRip ID: 000d268b-0056c385-7f09cf08] found.
Track   [  CRC   |   V2   ] Status
 01     [949be701|2a75c4ad] (00+20/20) Accurately ripped
 02     [5e36a7f8|fa77ef31] (00+19/19) Accurately ripped
 03     [fca4a035|f8263a8b] (00+20/20) Accurately ripped
 04     [81522663|750db859] (00+20/20) Accurately ripped
 05     [58afc64c|8876a223] (00+19/19) Accurately ripped
 06     [3b20d718|ccaa1913] (00+20/20) Accurately ripped
 07     [17aab592|760b3c45] (00+19/19) Accurately ripped
 08     [3a44c166|d64b943c] (00+20/20) Accurately ripped

Track Peak [ CRC32  ] [W/O NULL] [  LOG   ]
 --   91.1 [DC785DB2] [C9274217]           
 01   91.1 [E7408037] [81C55F08]   CRC32   
 02   88.1 [88751447] [3A65054B]   CRC32   
 03   68.9 [26716561] [9ED2AD74]   CRC32   
 04   87.7 [41EB5D3F] [C82BBF72]   CRC32   
 05   87.5 [065047B8] [03EEFA3B]   CRC32   
 06   87.9 [97D79074] [AC77CA94]   CRC32   
 07   87.4 [24E6A185] [B6CCABC2]   CRC32   
 08   86.2 [08046CEC] [87B9811F]   CRC32   



Create a new paste based on this one


Comments: