[ create a new paste ] login | about

Link: http://codepad.org/VXsZAteD    [ raw code | fork ]

Plain Text, pasted on Jul 6:
foobar2000 1.3.17 / Dynamic Range Meter 1.1.1
log date: 2018-07-05 18:48:18

--------------------------------------------------------------------------------
Analyzed: STEVIE WONDER / FULFILLINGNESS' FIRST FINALE
--------------------------------------------------------------------------------

DR         Peak         RMS     Duration Track
--------------------------------------------------------------------------------
DR11      -3.96 dB   -16.35 dB      3:29 01-Smile Please
DR12      -3.96 dB   -16.98 dB      5:03 02-Heaven Is 10 Zillion Light Years Away
DR11      -6.06 dB   -20.77 dB      3:28 03-Too Shy To Say
DR12      -3.80 dB   -16.43 dB      4:57 04-Boogie On Reggae Woman
DR11      -3.81 dB   -17.10 dB      4:21 05-Creepin'
DR12      -3.87 dB   -17.31 dB      3:23 06-You Haven't Done Nothin'
DR11      -3.96 dB   -16.76 dB      4:01 07-It Ain't No Use
DR11      -4.22 dB   -19.83 dB      5:59 08-They Won't Go When I Go
DR12      -4.01 dB   -16.96 dB      3:48 09-Bird Of Beauty
DR11      -3.93 dB   -17.38 dB      4:09 10-Please Don't Go
--------------------------------------------------------------------------------

Number of tracks:  10
Official DR value: DR11

Samplerate:        2822400 Hz / PCM Samplerate: 176400 Hz
Channels:          2
Bits per sample:   1
Bitrate:           5645 kbps
Codec:             DSD64
================================================================================




Create a new paste based on this one


Comments: