[ create a new paste ] login | about

Link: http://codepad.org/VYEnMHcK    [ raw code | fork ]

Plain Text, pasted on Apr 19:
[CUETools log; Date: 9/2/2015 1:50:52 AM; Version: 2.1.5]
[CTDB TOCID: coeTpVkdoqN9eTxCJf3cmDowsaE-] found.
Track | CTDB Status
  1   | (10/10) Accurately ripped
  2   | (10/10) Accurately ripped
  3   | ( 9/10) Accurately ripped
  4   | (10/10) Accurately ripped
  5   | (10/10) Accurately ripped
  6   | (10/10) Accurately ripped
  7   | (10/10) Accurately ripped
  8   | (10/10) Accurately ripped
  9   | ( 9/10) Accurately ripped
 10   | (10/10) Accurately ripped
[AccurateRip ID: 000f2a84-007787cc-7d08e80a] found.
Track   [  CRC   |   V2   ] Status
 01     [a671381e|734aeab0] (00+17/17) Accurately ripped
 02     [ab827f74|caab23e5] (00+17/17) Accurately ripped
 03     [e36f79e3|ce8091f2] (00+17/17) Accurately ripped
 04     [06864856|b5219750] (00+17/17) Accurately ripped
 05     [a68a0b2e|e852ec06] (00+17/17) Accurately ripped
 06     [fad37c18|4eab5c2f] (00+17/17) Accurately ripped
 07     [1b6f60e2|31bc6355] (00+17/17) Accurately ripped
 08     [d2da51e7|1eb00513] (00+17/17) Accurately ripped
 09     [325184e0|9665c04b] (00+17/17) Accurately ripped
 10     [78bd6467|7717eb6e] (00+17/17) Accurately ripped

Track Peak [ CRC32  ] [W/O NULL] [  LOG   ]
 --  100.0 [65F6DD60] [4B249CAE]   CRC32   
 01  100.0 [95B9B501] [4D3E7EAC]           
 02   96.6 [9D5E5BF4] [772989A4]           
 03   75.1 [2045DDA7] [920E6293]           
 04   91.8 [3FEDC3B5] [77A847B3]           
 05  100.0 [A0A59E4E] [D90183DD]           
 06  100.0 [5C19948B] [EB425C01]           
 07   96.1 [658A3016] [B89F5ECA]           
 08   97.9 [1E76F558] [4BABEC3F]           
 09   39.5 [588960A8] [53B20355]           
 10   62.1 [B51CC775] [84F71EB9]           



Create a new paste based on this one


Comments: