[ create a new paste ] login | about

Link: http://codepad.org/VYt4mhZQ    [ raw code | fork ]

Plain Text, pasted on Jul 23:
foobar2000 1.5 / Dynamic Range Meter 1.1.1
log date: 2020-07-21 02:38:33

--------------------------------------------------------------------------------
Analyzed: ? / Orient - Occident II - Hommage à la Syrie
--------------------------------------------------------------------------------

DR         Peak         RMS     Duration Track
--------------------------------------------------------------------------------
DR13     -12.25 dB   -28.13 dB      2:38 01-Ahla Zahra
DR13     -13.69 dB   -31.11 dB      4:20 02-Samai maqam Bayati (Syrie)
DR11     -16.31 dB   -31.56 dB      2:09 03-Creire m'en fach
DR14      -8.17 dB   -29.35 dB      4:11 04-Ô Aube Ya fajr (Syrie)
DR13     -11.77 dB   -29.31 dB      3:29 05-Shaouia (Syrie)
DR15     -11.93 dB   -31.94 dB      3:28 06-Improvisation Oud
DR14      -9.33 dB   -28.63 dB      7:52 07-Mawal Sab'awi - 'Ala Al-'aqiqa - Beiny wa Beinak
DR13      -8.92 dB   -27.62 dB      4:16 08-Istampitta: isabella
DR13     -10.81 dB   -29.18 dB      4:11 09-Ce Brun Hal asmar (Syrie)
DR13     -10.00 dB   -29.86 dB      3:35 10-Trotto
DR13     -11.44 dB   -30.39 dB      3:48 11-Ya Mariam el bekr (Syrie)
DR14     -10.21 dB   -29.15 dB      3:58 12-Ghazal
DR15      -8.24 dB   -30.28 dB      4:38 13-Angoisse (Qalaq (Syrie)
DR13      -9.94 dB   -29.05 dB      3:43 14-Cantiga 41: Virgen, madre de nostro Sennor
DR14      -8.67 dB   -28.17 dB      9:00 15-Hija mia - Et dodim kala (Israël)
DR13     -12.04 dB   -30.15 dB      4:34 16-Una Pastora
DR13     -10.24 dB   -29.74 dB      5:08 17-A Damas (Syrie)
DR13     -17.53 dB   -33.04 dB      3:24 18- Improvisation Ney (Départ)
--------------------------------------------------------------------------------

Number of tracks:  18
Official DR value: DR13

Samplerate:        2822400 Hz / PCM Samplerate: 176400 Hz
Channels:          5
Bits per sample:   1
Bitrate:           14112 kbps
Codec:             DST64
================================================================================

--------------------------------------------------------------------------------
Analyzed: ? / Orient - Occident II - Hommage à la Syrie
--------------------------------------------------------------------------------

DR         Peak         RMS     Duration Track
--------------------------------------------------------------------------------
DR13      -9.95 dB   -26.26 dB      2:38 01-Ahla Zahra
DR13     -14.13 dB   -29.54 dB      4:20 02-Samai maqam Bayati (Syrie)
DR10     -15.90 dB   -30.02 dB      2:09 03-Creire m'en fach
DR15      -8.05 dB   -27.08 dB      4:11 04-Ô Aube Ya fajr (Syrie)
DR13     -11.22 dB   -26.59 dB      3:29 05-Shaouia (Syrie)
DR15     -13.47 dB   -31.49 dB      3:28 06-Improvisation Oud
DR15      -9.46 dB   -27.18 dB      7:52 07-Mawal Sab'awi - 'Ala Al-'aqiqa - Beiny wa Beinak
DR12      -8.78 dB   -24.50 dB      4:16 08-Istampitta: isabella
DR13     -10.90 dB   -27.80 dB      4:11 09-Ce Brun Hal asmar (Syrie)
DR13      -9.22 dB   -27.77 dB      3:35 10-Trotto
DR14     -10.06 dB   -28.36 dB      3:48 11-Ya Mariam el bekr (Syrie)
DR14      -8.83 dB   -27.03 dB      3:58 12-Ghazal
DR14      -8.85 dB   -28.97 dB      4:38 13-Angoisse (Qalaq (Syrie)
DR12      -9.24 dB   -25.52 dB      3:43 14-Cantiga 41: Virgen, madre de nostro Sennor
DR13      -8.88 dB   -26.52 dB      9:00 15-Hija mia - Et dodim kala (Israël)
DR13      -8.41 dB   -27.90 dB      4:34 16-Una Pastora
DR14      -8.59 dB   -28.15 dB      5:08 17-A Damas (Syrie)
DR13     -16.28 dB   -32.70 dB      3:24 18- Improvisation Ney (Départ)
--------------------------------------------------------------------------------

Number of tracks:  18
Official DR value: DR13

Samplerate:        2822400 Hz / PCM Samplerate: 176400 Hz
Channels:          2
Bits per sample:   1
Bitrate:           5645 kbps
Codec:             DST64
================================================================================




Create a new paste based on this one


Comments: