[ create a new paste ] login | about

Link: http://codepad.org/VZlxHRWF    [ raw code | fork ]

Plain Text, pasted on Apr 26:
[CUETools log; Date: 4/26/2016 11:20:20 AM; Version: 2.1.5]
[CTDB TOCID: J6ljj_AycXRy1_lOhuakGEnu0lg-] found.
Track | CTDB Status
  1   | (25/26) Accurately ripped
  2   | (26/26) Accurately ripped
  3   | (26/26) Accurately ripped
  4   | (26/26) Accurately ripped
  5   | (26/26) Accurately ripped
  6   | (26/26) Accurately ripped
  7   | (26/26) Accurately ripped
  8   | (26/26) Accurately ripped
  9   | (26/26) Accurately ripped
 10   | (26/26) Accurately ripped
 11   | (26/26) Accurately ripped
 12   | (25/26) Accurately ripped
 13   | (26/26) Accurately ripped
 14   | (26/26) Accurately ripped
 15   | (26/26) Accurately ripped
[AccurateRip ID: 00292676-01d42d75-e911b80f] found.
Track   [  CRC   |   V2   ] Status
 01     [2699c349|bcc41f2d] (07+11/53) Accurately ripped
 02     [9a6c4b64|eeb780f2] (07+11/52) Accurately ripped
 03     [7610e081|07f53141] (07+11/52) Accurately ripped
 04     [3dd008b9|1a3c30c1] (07+11/53) Accurately ripped
 05     [7f16fc37|004374c7] (07+11/52) Accurately ripped
 06     [249515b4|abeb0ffa] (07+11/52) Accurately ripped
 07     [f59d4b95|4fa9e2b9] (07+11/53) Accurately ripped
 08     [cfeef19f|032f6bfa] (07+11/52) Accurately ripped
 09     [25778102|afff3f29] (07+11/52) Accurately ripped
 10     [49b9f95f|29a7fede] (07+11/53) Accurately ripped
 11     [2762b341|4491b17a] (07+11/53) Accurately ripped
 12     [a8a603ce|ed10a194] (06+11/52) Accurately ripped
 13     [b2ed189b|f7d7f306] (07+11/54) Accurately ripped
 14     [43b90854|0eb3d260] (07+11/53) Accurately ripped
 15     [fa025348|f0d99e27] (07+11/51) Accurately ripped
Offsetted by -12:
 01     [9c1a08e4] (18/53) Accurately ripped
 02     [4027da91] (18/52) Accurately ripped
 03     [96806e12] (18/52) Accurately ripped
 04     [b709416e] (18/53) Accurately ripped
 05     [213a910c] (18/52) Accurately ripped
 06     [06fff67a] (18/52) Accurately ripped
 07     [b54f66da] (18/53) Accurately ripped
 08     [d4eccdc2] (18/52) Accurately ripped
 09     [9dafd9b6] (18/52) Accurately ripped
 10     [88346579] (18/53) Accurately ripped
 11     [14e524b1] (18/53) Accurately ripped
 12     [7f6f034d] (18/52) Accurately ripped
 13     [35d66540] (19/54) Accurately ripped
 14     [041d18e3] (18/53) Accurately ripped
 15     [362d8205] (17/51) Accurately ripped
Offsetted by -6:
 01     [ae3be05a] (00/53) No match (V2 was not tested)
 02     [6dbad043] (00/52) No match (V2 was not tested)
 03     [018679b0] (00/52) No match (V2 was not tested)
 04     [61650cc8] (00/53) No match (V2 was not tested)
 05     [d02746a1] (00/52) No match (V2 was not tested)
 06     [d8d59cee] (00/52) No match (V2 was not tested)
 07     [d51ae4c0] (00/53) No match (V2 was not tested)
 08     [5385dc80] (00/52) No match (V2 was not tested)
 09     [61290953] (00/52) No match (V2 was not tested)
 10     [154c5a77] (00/53) No match (V2 was not tested)
 11     [9ec9cfb7] (00/53) No match (V2 was not tested)
 12     [d408fbc6] (00/52) No match (V2 was not tested)
 13     [f37b3e6e] (00/54) No match (V2 was not tested)
 14     [a35518dd] (00/53) No match (V2 was not tested)
 15     [c6351982] (00/51) No match (V2 was not tested)

Track Peak [ CRC32  ] [W/O NULL] [  LOG   ]
 --   99.8 [91E124D3] [E76697BB]   CRC32   
 01   99.8 [CEAFBE7B] [2CFC9BD6]           
 02   99.8 [A75D5745] [3AF0BB95]           
 03   99.8 [513034BB] [91E3D2F0]           
 04   99.8 [3E9C18CC] [A9C97010]           
 05   99.8 [1418C7C7] [F9936DA6]           
 06   99.8 [5DD590EF] [607EC1A4]           
 07   99.8 [FFB46EDA] [C84090EE]           
 08   99.8 [63A12F66] [6A9B06BB]           
 09   99.8 [7CBE0566] [321FC78C]           
 10   99.8 [D7DD4F8B] [7F436E1D]           
 11   99.8 [559F2984] [CD7B5F8F]           
 12   99.8 [F0702CD0] [EBAFE6E1]           
 13   99.8 [F62D7F2E] [55BCB190]           
 14   99.8 [B5F83858] [28F70358]           
 15   99.8 [4C2FD442] [359471DD]           



Create a new paste based on this one


Comments: