[ create a new paste ] login | about

Link: http://codepad.org/Vdvfx3bv    [ raw code | fork ]

Plain Text, pasted on May 1:
foobar2000 1.4.1 / Dynamic Range Meter 1.1.1
log date: 2019-04-30 23:11:51

--------------------------------------------------------------------------------
Analyzed: ? / Jazz in an RnB Groove, Vol 2
--------------------------------------------------------------------------------

DR         Peak         RMS     Duration Track
--------------------------------------------------------------------------------
DR9       -0.28 dB   -11.38 dB     10:29 01-Pick Up The Pieces
DR7       -2.18 dB   -10.60 dB      6:32 02-My Girl
DR12      -0.01 dB   -13.93 dB      6:29 03-Where Is The Love
DR9       -0.23 dB   -11.48 dB      4:10 04-Your Mind Is On Vacation
DR11      -0.47 dB   -13.56 dB      7:42 05-Put It Where You Want It
DR12      -0.47 dB   -14.49 dB      3:06 06-She's Got The Blues For Sale
DR10      -0.35 dB   -11.75 dB      4:21 07-Tu-Way-Pock-E-Way
DR10      -0.24 dB   -12.53 dB      9:50 08-Dat Dere
DR11      -0.71 dB   -13.03 dB      3:15 09-Ya-Ya
DR10      -0.66 dB   -13.32 dB      5:42 10-Hit The Road Jack
--------------------------------------------------------------------------------

Number of tracks:  10
Official DR value: DR10

Samplerate:        88200 Hz
Channels:          2
Bits per sample:   24
Bitrate:           2694 kbps
Codec:             FLAC
================================================================================




Create a new paste based on this one


Comments: