[ create a new paste ] login | about

Link: http://codepad.org/VfZpkCQU    [ raw code | fork ]

Plain Text, pasted on Aug 11:
foobar2000 1.3.17 / Dynamic Range Meter 1.1.1
log date: 2018-08-10 13:20:38

--------------------------------------------------------------------------------
Analyzed: ? / ?
--------------------------------------------------------------------------------

DR         Peak         RMS     Duration Track
--------------------------------------------------------------------------------
DR14      -5.57 dB   -22.33 dB      2:39 01-These Boots Are Made For Walking
DR14      -5.74 dB   -21.89 dB      4:12 02-Summerwine
DR12      -5.00 dB   -20.83 dB      2:43 03-Things
DR13      -7.09 dB   -22.35 dB      2:55 04-Did You Ever
DR16      -6.10 dB   -24.25 dB      2:25 05-Friday's Child
DR10      -7.64 dB   -20.59 dB      2:55 06-You Only Live Twice
DR14      -5.52 dB   -21.52 dB      3:26 07-Highway Song
DR12      -5.57 dB   -20.53 dB      3:12 08-Elusive Dreams
DR12      -5.97 dB   -20.83 dB      3:08 09-Storybook Children
DR14      -5.57 dB   -22.68 dB      2:21 10-Sugar Town
DR12      -6.07 dB   -21.13 dB      2:38 11-Something Stupid
DR13      -6.89 dB   -21.91 dB      2:46 12-Jackson
DR14      -6.04 dB   -24.96 dB      3:43 13-Sand
DR12      -5.81 dB   -19.71 dB      2:36 14-Sundown, Sundown
DR12      -6.80 dB   -21.20 dB      3:34 15-Some Velvet Morning
DR14      -7.04 dB   -22.51 dB      2:47 16-I've Been Down So Long
DR13      -6.67 dB   -21.79 dB      2:24 17-Tony Rome
DR14      -5.88 dB   -22.76 dB      2:30 18-How Does That Grab You, Darlin'
DR12      -6.36 dB   -20.66 dB      3:02 19-Lady Bird
DR12      -6.29 dB   -21.12 dB      3:06 20-So Long Babe
--------------------------------------------------------------------------------

Number of tracks:  20
Official DR value: DR13

Samplerate:        2822400 Hz / PCM Samplerate: 176400 Hz
Channels:          2
Bits per sample:   1
Bitrate:           5645 kbps
Codec:             DST64
================================================================================




Create a new paste based on this one


Comments: