[ create a new paste ] login | about

Link: http://codepad.org/Vgwk1ftl    [ raw code | fork ]

Plain Text, pasted on Nov 22:
foobar2000 1.3.2 / Dynamic Range Meter 1.1.0
log date: 2014-09-24 09:56:39

--------------------------------------------------------------------------------
Analyzed: Mike Bloomfield, Al Kooper, Stephen Stills / Super Session [2014 Audio Fidelity SACD AFZ5 186]
--------------------------------------------------------------------------------

DR         Peak         RMS     Duration Track
--------------------------------------------------------------------------------
DR11      -0.01 dB   -13.60 dB      6:54 01-Albert's Shuffle
DR11      -0.38 dB   -15.18 dB      4:23 02-Stop
DR13      -0.05 dB   -16.49 dB      3:25 03-Man's Temptation
DR12      -0.91 dB   -16.05 dB      9:13 04-His Holy Modal Majesty
DR11      -2.37 dB   -16.51 dB      5:31 05-Really
DR12      -0.02 dB   -14.76 dB      3:31 06-It Takes A Lot To Laugh, It Takes A Train To Cry
DR12      -0.03 dB   -16.32 dB     11:07 07-Season Of The Witch
DR12      -0.43 dB   -15.01 dB      4:10 08-You Don't Love Me
DR11      -1.87 dB   -16.16 dB      2:07 09-Harvey's Tune
--------------------------------------------------------------------------------

Number of tracks:  9
Official DR value: DR12

Samplerate:        44100 Hz
Channels:          2
Bits per sample:   16
Bitrate:           865 kbps
Codec:             FLAC
================================================================================




Create a new paste based on this one


Comments: