[ create a new paste ] login | about

Link: http://codepad.org/VkGM3vs7    [ raw code | fork ]

Plain Text, pasted on Apr 24:
foobar2000 1.2.2 / Dynamic Range Meter 1.1.1
log date: 2013-02-22 12:52:58

--------------------------------------------------------------------------------
Analyzed: Johnny Winter / The Best Of Johnny Winter (SACD)
--------------------------------------------------------------------------------

DR         Peak         RMS     Duration Track
--------------------------------------------------------------------------------
DR10      -0.01 dB   -12.37 dB      3:30 01-Rock And Roll, Hoochie Koo
DR12      -0.11 dB   -13.97 dB      4:31 02-I'm Yours And I'm Hers
DR11      -1.08 dB   -13.40 dB      2:46 03-Johnny B. Goode
DR10      -1.57 dB   -15.38 dB      4:46 04-I'll Drown In My Tears
DR15      -3.45 dB   -19.97 dB      5:05 05-Come On In My Kitchen
DR13      -0.38 dB   -16.03 dB      3:28 06-Rollin' And Tumblin'
DR9       -1.01 dB   -12.74 dB      5:08 07-Highway 61 Revisited
DR11      -0.87 dB   -13.59 dB      3:30 08-Hustled Down In Texas
DR12      -0.55 dB   -14.87 dB      2:56 09-Mother-In-Law Blues
DR11      -4.41 dB   -17.96 dB      2:44 10-Dallas
DR12      -0.21 dB   -14.47 dB      3:39 11-Miss Ann
DR11      -0.48 dB   -14.53 dB     11:54 12-It's My Own Fault (Live)
DR11      -1.30 dB   -14.89 dB      8:25 13-Mean Town Blues (Live)
DR12      -0.31 dB   -14.15 dB      3:44 14-Still Alive And Well
DR12      -0.35 dB   -13.98 dB      5:16 15-Be Careful With A Fool
DR11      -0.72 dB   -12.98 dB      5:30 16-Memory Pain
--------------------------------------------------------------------------------

Number of tracks:  16
Official DR value: DR11

Samplerate:        88200 Hz
Channels:          2
Bits per sample:   24
Bitrate:           2821 kbps
Codec:             FLAC
================================================================================




Create a new paste based on this one


Comments: