[ create a new paste ] login | about

Link: http://codepad.org/VqJLlSL1    [ raw code | fork ]

Plain Text, pasted on Aug 21:
foobar2000 1.3.17 / Dynamic Range Meter 1.1.1
log date: 2018-08-21 09:56:40

--------------------------------------------------------------------------------
Analyzed: R.E.M. / Reveal
--------------------------------------------------------------------------------

DR         Peak         RMS     Duration Track
--------------------------------------------------------------------------------
DR6        0.00 dB    -7.75 dB      4:35 01-Lifting
DR7        0.00 dB    -8.46 dB      3:27 02-I've Been High
DR7        0.00 dB    -8.73 dB      4:44 03-All the Way to Reno (You're Gonna Be a Star)
DR7        0.00 dB    -9.84 dB      5:22 04-She Just Wants to Be
DR6        0.00 dB    -8.48 dB      4:11 05-Disappear
DR8        0.00 dB   -11.05 dB      4:55 06-Saturn Return
DR6        0.00 dB    -8.69 dB      4:21 07-Beat a Drum
DR7        0.00 dB    -7.92 dB      3:57 08-Imitation of Life
DR6        0.00 dB    -8.27 dB      3:32 09-Summer Turns to High
DR7        0.00 dB    -9.80 dB      4:31 10-Chorus and the Ring
DR6        0.00 dB    -8.93 dB      5:52 11-I'll Take the Rain
DR8        0.00 dB   -10.06 dB      4:15 12-Beachball
--------------------------------------------------------------------------------

Number of tracks:  12
Official DR value: DR7

Samplerate:        96000 Hz
Channels:          2
Bits per sample:   24
Bitrate:           2845 kbps
Codec:             FLAC
================================================================================




Create a new paste based on this one


Comments: