[ create a new paste ] login | about

Link: http://codepad.org/Vqq6i8KK    [ raw code | fork ]

Plain Text, pasted on Oct 12:
foobar2000 1.3 / Dynamic Range Meter 1.1.1
log date: 2015-01-13 11:41:39

--------------------------------------------------------------------------------
Analyzed: 3 Doors Down / Away From The Sun (Hybrid SACD)
--------------------------------------------------------------------------------

DR         Peak         RMS     Duration Track
--------------------------------------------------------------------------------
DR11      -0.05 dB   -12.99 dB      4:22 01-When I'm Gone
DR11      -0.11 dB   -14.88 dB      3:53 02-Away From The Sun
DR10      -0.22 dB   -13.33 dB      4:00 03-The Road I'm On
DR10      -0.11 dB   -13.81 dB      3:28 04-Ticket To Heaven
DR10      -0.08 dB   -13.11 dB      3:32 05-Running Out Of Days
DR11      -0.07 dB   -14.60 dB      4:00 06-Here Without You
DR11      -0.08 dB   -13.31 dB      4:08 07-I Feel You
DR11      -0.01 dB   -13.48 dB      3:37 08-Dangerous Game
DR10      -0.13 dB   -13.50 dB      3:57 09-Changes
DR10      -0.12 dB   -12.24 dB      3:29 10-Going Down In Flames
DR10      -0.10 dB   -12.51 dB      3:18 11-Sarah Yellin'
DR12      -0.09 dB   -14.79 dB      5:21 12-This Time
--------------------------------------------------------------------------------

Number of tracks:  12
Official DR value: DR11

Samplerate:        88200 Hz
Channels:          6
Bits per sample:   24
Bitrate:           7438 kbps
Codec:             FLAC
================================================================================




Create a new paste based on this one


Comments: