[ create a new paste ] login | about

Link: http://codepad.org/Vr0TRjJq    [ raw code | fork ]

Plain Text, pasted on Dec 21:
Exact Audio Copy V1.0 beta 3 from 29. August 2011

EAC extraction logfile from 26. August 2014, 1:38

Suede / Sci-Fi Lullabies (CD 1)

Used drive  : PIONEER DVD-RW  DVR-118L   Adapter: 2  ID: 0

Read mode               : Secure
Utilize accurate stream : Yes
Defeat audio cache      : Yes
Make use of C2 pointers : No

Read offset correction                      : 6
Overread into Lead-In and Lead-Out          : No
Fill up missing offset samples with silence : Yes
Delete leading and trailing silent blocks   : No
Null samples used in CRC calculations       : Yes
Used interface                              : Native Win32 interface for Win NT & 2000
Gap handling                                : Appended to previous track

Used output format              : User Defined Encoder
Selected bitrate                : 1024 kBit/s
Quality                         : High
Add ID3 tag                     : No
Command line compressor         : C:\Program Files (x86)\Exact Audio Copy\Flac\flac.exe
Additional command line options : -8 -V -T "ARTIST=%artist%" -T "TITLE=%title%" -T "ALBUM=%albumtitle%" -T "DATE=%year%" -T "TRACKNUMBER=%tracknr%" -T "GENRE=%genre%" -T "PERFORMER=%albuminterpret%" -T "COMPOSER=%composer%" %haslyrics%--tag-from-file=LYRICS="%lyricsfile%"%haslyrics% -T "ALBUMARTIST=%albumartist%" -T "DISCNUMBER=%cdnumber%" -T "TOTALDISCS=%totalcds%" -T "TOTALTRACKS=%numtracks%" -T "COMMENT=%comment%" %source% -o %dest%


TOC of the extracted CD

     Track |   Start  |  Length  | Start sector | End sector 
    ---------------------------------------------------------
        1  |  0:00.00 |  2:59.00 |         0    |    13424   
        2  |  2:59.00 |  5:24.52 |     13425    |    37776   
        3  |  8:23.52 |  5:34.67 |     37777    |    62893   
        4  | 13:58.44 |  5:13.40 |     62894    |    86408   
        5  | 19:12.09 |  4:27.09 |     86409    |   106442   
        6  | 23:39.18 |  5:51.39 |    106443    |   132806   
        7  | 29:30.57 |  2:49.41 |    132807    |   145522   
        8  | 32:20.23 |  4:24.42 |    145523    |   165364   
        9  | 36:44.65 |  4:06.59 |    165365    |   183873   
       10  | 40:51.49 |  4:20.74 |    183874    |   203447   
       11  | 45:12.48 |  4:09.60 |    203448    |   222182   
       12  | 49:22.33 |  4:33.30 |    222183    |   242687   
       13  | 53:55.63 |  3:16.62 |    242688    |   257449   
       14  | 57:12.50 |  5:38.74 |    257450    |   282873   


Track  1

     Filename D:\CDRip\01 - My Insatiable One.wav

     Pre-gap length  0:00:02.00

     Peak level 91.6 %
     Extraction speed 1.0 X
     Track quality 100.0 %
     Test CRC 7477D132
     Copy CRC 7477D132
     Track not present in AccurateRip database
     Copy OK

Track  2

     Filename D:\CDRip\02 - To The Birds.wav

     Pre-gap length  0:00:00.64

     Peak level 96.9 %
     Extraction speed 1.1 X
     Track quality 99.9 %
     Test CRC 57154FBA
     Copy CRC 57154FBA
     Track not present in AccurateRip database
     Copy OK

Track  3

     Filename D:\CDRip\03 - Where The Pigs Don't Fly.wav

     Pre-gap length  0:00:01.04

     Peak level 97.1 %
     Extraction speed 1.3 X
     Track quality 100.0 %
     Test CRC 360BB8D9
     Copy CRC 360BB8D9
     Track not present in AccurateRip database
     Copy OK

Track  4

     Filename D:\CDRip\04 - He's Dead.wav

     Pre-gap length  0:00:00.49

     Peak level 96.9 %
     Extraction speed 1.5 X
     Track quality 100.0 %
     Test CRC 53CD7040
     Copy CRC 53CD7040
     Track not present in AccurateRip database
     Copy OK

Track  5

     Filename D:\CDRip\05 - The Big Time.wav

     Pre-gap length  0:00:00.70

     Peak level 97.1 %
     Extraction speed 1.5 X
     Track quality 100.0 %
     Test CRC 975E214B
     Copy CRC 975E214B
     Track not present in AccurateRip database
     Copy OK

Track  6

     Filename D:\CDRip\06 - High Rising.wav

     Pre-gap length  0:00:00.97

     Peak level 96.7 %
     Extraction speed 1.7 X
     Track quality 100.0 %
     Test CRC ADBB87A4
     Copy CRC ADBB87A4
     Track not present in AccurateRip database
     Copy OK

Track  7

     Filename D:\CDRip\07 - The Living Dead.wav

     Pre-gap length  0:00:00.66

     Peak level 91.1 %
     Extraction speed 1.6 X
     Track quality 100.0 %
     Test CRC D49FAFF4
     Copy CRC D49FAFF4
     Track not present in AccurateRip database
     Copy OK

Track  8

     Filename D:\CDRip\08 - My Dark Star.wav

     Pre-gap length  0:00:01.14

     Peak level 91.5 %
     Extraction speed 1.8 X
     Track quality 100.0 %
     Test CRC F6A71B07
     Copy CRC F6A71B07
     Track not present in AccurateRip database
     Copy OK

Track  9

     Filename D:\CDRip\09 - Killing Of A Flash Boy.wav

     Pre-gap length  0:00:02.00

     Peak level 90.6 %
     Extraction speed 1.9 X
     Track quality 100.0 %
     Test CRC 58D7511D
     Copy CRC 58D7511D
     Track not present in AccurateRip database
     Copy OK

Track 10

     Filename D:\CDRip\10 - Whipsnade.wav

     Pre-gap length  0:00:01.40

     Peak level 90.5 %
     Extraction speed 2.0 X
     Track quality 100.0 %
     Test CRC CC3B30AA
     Copy CRC CC3B30AA
     Track not present in AccurateRip database
     Copy OK

Track 11

     Filename D:\CDRip\11 - Modern Boys.wav

     Pre-gap length  0:00:01.84

     Peak level 93.3 %
     Extraction speed 2.0 X
     Track quality 100.0 %
     Test CRC 2F32B7CD
     Copy CRC 2F32B7CD
     Track not present in AccurateRip database
     Copy OK

Track 12

     Filename D:\CDRip\12 - Together.wav

     Pre-gap length  0:00:01.96

     Peak level 90.6 %
     Extraction speed 2.1 X
     Track quality 100.0 %
     Test CRC 5C655A18
     Copy CRC 5C655A18
     Track not present in AccurateRip database
     Copy OK

Track 13

     Filename D:\CDRip\13 - Bentswood Boys.wav

     Pre-gap length  0:00:00.29

     Peak level 99.4 %
     Extraction speed 2.1 X
     Track quality 100.0 %
     Test CRC A6EFA909
     Copy CRC A6EFA909
     Track not present in AccurateRip database
     Copy OK

Track 14

     Filename D:\CDRip\14 - Europe Is Our Playground.wav

     Pre-gap length  0:00:02.74

     Peak level 99.4 %
     Extraction speed 2.1 X
     Track quality 99.9 %
     Test CRC DA5728B6
     Copy CRC DA5728B6
     Track not present in AccurateRip database
     Copy OK


None of the tracks are present in the AccurateRip database

No errors occurred

End of status report

---- CUETools DB Plugin V2.1.3

[CTDB TOCID: SOIEg0WU8eHwdBm_4Ae0SamPs8w-] disk not present in database, Submit result: SOIEg0WU8eHwdBm_4Ae0SamPs8w- has been uploaded


==== Log checksum 44320F648F2F26C2029F4A44D5DA50F27E24E6978CB085F4C3D6BA7D5F2C647A ====



Create a new paste based on this one


Comments: