[ create a new paste ] login | about

Link: http://codepad.org/VsFAVg2K    [ raw code | fork ]

Plain Text, pasted on Jul 26:
Exact Audio Copy V0.99 prebeta 5 from 4. May 2009

EAC extraction logfile from 16. July 2016, 17:44

Frankie Miller / The Chrysalis Years 73 - 80 (Disc 1)

Used drive  : ATAPI   iHAS122   C   Adapter: 1  ID: 1

Read mode               : Secure
Utilize accurate stream : Yes
Defeat audio cache      : Yes
Make use of C2 pointers : No

Read offset correction                      : 6
Overread into Lead-In and Lead-Out          : No
Fill up missing offset samples with silence : Yes
Delete leading and trailing silent blocks   : No
Null samples used in CRC calculations       : Yes
Used interface                              : Native Win32 interface for Win NT & 2000

Used output format : Internal WAV Routines
Sample format      : 44.100 Hz; 16 Bit; Stereo


TOC of the extracted CD

     Track |   Start  |  Length  | Start sector | End sector 
    ---------------------------------------------------------
        1  |  0:00.00 |  3:34.34 |         0    |    16083   
        2  |  3:34.34 |  3:09.51 |     16084    |    30309   
        3  |  6:44.10 |  2:33.67 |     30310    |    41851   
        4  |  9:18.02 |  3:05.44 |     41852    |    55770   
        5  | 12:23.46 |  2:39.22 |     55771    |    67717   
        6  | 15:02.68 |  3:03.16 |     67718    |    81458   
        7  | 18:06.09 |  3:44.21 |     81459    |    98279   
        8  | 21:50.30 |  4:09.50 |     98280    |   117004   
        9  | 26:00.05 |  3:16.43 |    117005    |   131747   
       10  | 29:16.48 |  3:12.52 |    131748    |   146199   
       11  | 32:29.25 |  1:03.24 |    146200    |   150948   
       12  | 33:32.49 |  3:37.61 |    150949    |   167284   
       13  | 37:10.35 |  3:32.46 |    167285    |   183230   
       14  | 40:43.06 |  2:55.36 |    183231    |   196391   
       15  | 43:38.42 |  3:22.15 |    196392    |   211556   
       16  | 47:00.57 |  3:20.28 |    211557    |   226584   
       17  | 50:21.10 |  3:39.11 |    226585    |   243020   
       18  | 54:00.21 |  4:37.42 |    243021    |   263837   
       19  | 58:37.63 |  2:50.06 |    263838    |   276593   
       20  | 61:27.69 |  2:50.14 |    276594    |   289357   
       21  | 64:18.08 |  3:58.59 |    289358    |   307266   
       22  | 68:16.67 |  0:59.34 |    307267    |   311725   


Range status and errors

Selected range

     Filename C:\Users\Arturs\Desktop\Frankie Miller - The Chrysalis Years 73 - 80 (Disc 1).wav

     Peak level 96.5 %
     Range quality 100.0 %
     Test CRC 5B180277
     Copy CRC 5B180277
     Copy OK

No errors occurred

 
AccurateRip summary
 
Track  1  accurately ripped (confidence 4)  [3E672AA9]
Track  2  accurately ripped (confidence 4)  [410682A7]
Track  3  accurately ripped (confidence 4)  [794D6C4F]
Track  4  accurately ripped (confidence 4)  [14B98CEC]
Track  5  accurately ripped (confidence 4)  [D82A67DF]
Track  6  accurately ripped (confidence 4)  [172E0745]
Track  7  accurately ripped (confidence 4)  [05FBC431]
Track  8  accurately ripped (confidence 4)  [4C821CC5]
Track  9  accurately ripped (confidence 4)  [E67A4345]
Track 10  accurately ripped (confidence 4)  [A33A3F57]
Track 11  accurately ripped (confidence 4)  [4C0816CE]
Track 12  accurately ripped (confidence 4)  [BE68537B]
Track 13  accurately ripped (confidence 4)  [70A6BE95]
Track 14  accurately ripped (confidence 4)  [8D0637CA]
Track 15  accurately ripped (confidence 4)  [252EFE3E]
Track 16  accurately ripped (confidence 4)  [979D3F8D]
Track 17  accurately ripped (confidence 4)  [29E15E03]
Track 18  accurately ripped (confidence 4)  [8DEB10A9]
Track 19  accurately ripped (confidence 4)  [3252804A]
Track 20  accurately ripped (confidence 4)  [888E3D84]
Track 21  accurately ripped (confidence 4)  [1E6644DE]
Track 22  accurately ripped (confidence 4)  [D63F3E6D]
 
All tracks accurately ripped

End of status report



Create a new paste based on this one


Comments: