[ create a new paste ] login | about

Link: http://codepad.org/VyyuhCUv    [ raw code | fork ]

Plain Text, pasted on Mar 21:
[CUETools log; Date: 3/21/2016 1:33:53 AM; Version: 2.1.5]
HDCD: peak extend: none, transient filter: some, gain: none
[CTDB TOCID: BqdbYofOtnv5uvvmjhXwZN_XpzE-] found.
Track | CTDB Status
  1   | (36/36) Accurately ripped
  2   | (36/36) Accurately ripped
  3   | (35/36) Accurately ripped
  4   | (35/36) Accurately ripped
  5   | (35/36) Accurately ripped
  6   | (35/36) Accurately ripped
  7   | (36/36) Accurately ripped
  8   | (34/36) Accurately ripped
[AccurateRip ID: 000af008-00492c4a-74083d08] found.
Track   [  CRC   |   V2   ] Status
 01     [ab940f04|589a51c1] (074+061/144) Accurately ripped
 02     [ea1e2f66|e3ba4178] (072+061/142) Accurately ripped
 03     [7ab61b11|1a69933b] (071+061/141) Accurately ripped
 04     [7240c666|4c7fd0d7] (071+061/141) Accurately ripped
 05     [36eaabe7|37c6828f] (073+063/146) Accurately ripped
 06     [8d758a23|0f78658a] (071+061/141) Accurately ripped
 07     [64aae0c7|0f963b53] (072+061/142) Accurately ripped
 08     [f1524c68|86f05df2] (069+061/138) Accurately ripped
Offsetted by -78:
 01     [02b5f75f] (002/144) Accurately ripped
 02     [8aab62e1] (002/142) Accurately ripped
 03     [e56c725e] (002/141) Accurately ripped
 04     [95512cb2] (002/141) Accurately ripped
 05     [752a0ebe] (002/146) Accurately ripped
 06     [da6999bd] (002/141) Accurately ripped
 07     [34292c28] (002/142) Accurately ripped
 08     [8881bfef] (002/138) Accurately ripped
Offsetted by -18:
 01     [fa794a76] (003/144) Accurately ripped
 02     [52e3704f] (003/142) Accurately ripped
 03     [45e3b65d] (003/141) Accurately ripped
 04     [96f98204] (003/141) Accurately ripped
 05     [17abe6e7] (004/146) Accurately ripped
 06     [278d51f6] (003/141) Accurately ripped
 07     [c8894f4d] (003/142) Accurately ripped
 08     [9d64f0c6] (004/138) Accurately ripped
Offsetted by -12:
 01     [732f982a] (002/144) Accurately ripped
 02     [9f5f323c] (002/142) Accurately ripped
 03     [0f6af1ef] (002/141) Accurately ripped
 04     [5541bfee] (002/141) Accurately ripped
 05     [fd457366] (002/146) Accurately ripped
 06     [f1a6ba05] (002/141) Accurately ripped
 07     [c6d04971] (002/142) Accurately ripped
 08     [b94e0f57] (000/138) No match (V2 was not tested)
Offsetted by 6:
 01     [20bdca76] (000/144) No match (V2 was not tested)
 02     [81b72e21] (000/142) No match (V2 was not tested)
 03     [d1109dae] (000/141) No match (V2 was not tested)
 04     [ba7179ca] (000/141) No match (V2 was not tested)
 05     [1eca0433] (000/146) No match (V2 was not tested)
 06     [9fa0f23f] (000/141) No match (V2 was not tested)
 07     [7a40daea] (000/142) No match (V2 was not tested)
 08     [0d6b6aef] (000/138) No match (V2 was not tested)

Track Peak [ CRC32  ] [W/O NULL] 
 --  100.0 [F7900D5E] [2F476502]           
 01  100.0 [82FE85BA] [57AFB804]           
 02  100.0 [AB4C1718] [89209F94]           
 03  100.0 [558065CD] [29332F40]           
 04  100.0 [8CD22D5E] [0DD418D9]           
 05  100.0 [F393502E] [8F79881C]           
 06   99.7 [4B05FBE3] [E234B8A4]           
 07   96.5 [CAE7BCD0] [B2537DF5]           
 08  100.0 [263A603B] [8DBFE63B]           



Create a new paste based on this one


Comments: