[ create a new paste ] login | about

Link: http://codepad.org/W1Ym4Sun    [ raw code | fork ]

Plain Text, pasted on Aug 19:
Exact Audio Copy V1.3 from 2. September 2016

EAC extraction logfile from 18. August 2018, 20:06

The Guess Who / The Future Is What It Used To Be
	
Used drive  : HL-DT-STDVDRAM GP65NB60   Adapter: 1  ID: 1

Read mode               : Secure
Utilize accurate stream : Yes
Defeat audio cache      : Yes
Make use of C2 pointers : No

Read offset correction                      : 6
Overread into Lead-In and Lead-Out          : No
Fill up missing offset samples with silence : Yes
Delete leading and trailing silent blocks   : No
Null samples used in CRC calculations       : Yes
Used interface                              : Native Win32 interface for Win NT & 2000

Used output format              : User Defined Encoder
Selected bitrate                : 1024 kBit/s
Quality                         : High
Add ID3 tag                     : No
Command line compressor         : C:\Program Files (x86)\Exact Audio Copy\Flac\flac.exe
Additional command line options : -8 -V -T "ARTIST=%artist%" -T "ALBUM=%albumtitle%" -T "DATE=%year%" -T "GENRE=%genre%" -T "DISCNUMBER=%cdnumber%" -T "TOTALDISCS=%totalcds%" -T "TOTALTRACKS=%numtracks%" -T "COMMENT=EAC V1.3, Secure Mode, Test & Copy, AccurateRip, FLAC -8" %source% -o %dest%


TOC of the extracted CD

     Track |   Start  |  Length  | Start sector | End sector 
    ---------------------------------------------------------
        1  |  0:00.00 |  3:12.62 |         0    |    14461   
        2  |  3:12.62 |  3:45.11 |     14462    |    31347   
        3  |  6:57.73 |  3:24.57 |     31348    |    46704   
        4  | 10:22.55 |  5:19.13 |     46705    |    70642   
        5  | 15:41.68 |  4:38.46 |     70643    |    91538   
        6  | 20:20.39 |  3:29.30 |     91539    |   107243   
        7  | 23:49.69 |  4:42.69 |    107244    |   128462   
        8  | 28:32.63 |  4:10.59 |    128463    |   147271   
        9  | 32:43.47 |  3:25.37 |    147272    |   162683   
       10  | 36:09.09 |  5:10.70 |    162684    |   186003   


Range status and errors

Selected range

     Filename D:\TEMP\The Guess Who - The Future Is What It Used To Be (2018)\The Future Is What It Used To Be.wav

     Peak level 99.5 %
     Extraction speed 4.4 X
     Range quality 99.9 %
     Test CRC D5D4BD01
     Copy CRC D5D4BD01
     Copy OK

No errors occurred

 
AccurateRip summary
 
Track  1  not present in database
Track  2  not present in database
Track  3  not present in database
Track  4  not present in database
Track  5  not present in database
Track  6  not present in database
Track  7  not present in database
Track  8  not present in database
Track  9  not present in database
Track 10  not present in database
 
None of the tracks are present in the AccurateRip database

End of status report

---- CUETools DB Plugin V2.1.6

[CTDB TOCID: KZbqoaZeLFGGWF9_YxtMa3QimKY-] found
Submit result: KZbqoaZeLFGGWF9_YxtMa3QimKY- has been confirmed
Track | CTDB Status
  1   | (1/1) Accurately ripped
  2   | (1/1) Accurately ripped
  3   | (1/1) Accurately ripped
  4   | (1/1) Accurately ripped
  5   | (1/1) Accurately ripped
  6   | (1/1) Accurately ripped
  7   | (1/1) Accurately ripped
  8   | (1/1) Accurately ripped
  9   | (1/1) Accurately ripped
 10   | (1/1) Accurately ripped


==== Log checksum 82548CAA5FA42A5ECF2A609589341AF4FE271F5F0ADD9EBA2334F517EC05A036 ====



Create a new paste based on this one


Comments: