[ create a new paste ] login | about

Link: http://codepad.org/W1cYjBXv    [ raw code | fork ]

Plain Text, pasted on Dec 17:
Original 1979 Album Mix
->
foobar2000 1.5 / Dynamic Range Meter 1.1.1
log date: 2019-12-17 02:15:48

--------------------------------------------------------------------------------
Analyzed: Jethro Tull / Stormwatch ...The 40th Anniversary Force 10 Edition... (Original 1979 Album Mix)
--------------------------------------------------------------------------------

DR         Peak         RMS     Duration Track
--------------------------------------------------------------------------------
DR11      -2.35 dB   -15.96 dB      3:12 01-North Sea Oil
DR12      -2.91 dB   -17.37 dB      3:58 02-Orion
DR10      -3.61 dB   -17.78 dB      2:46 03-Home
DR12      -2.57 dB   -18.06 dB      9:12 04-Dark Ages
DR13      -2.56 dB   -18.16 dB      3:35 05-Warm Sporran
DR12      -2.34 dB   -16.07 dB      4:27 06-Something's On The Move
DR11      -2.90 dB   -17.48 dB      4:24 07-Old Ghosts
DR12      -5.42 dB   -21.93 dB      2:40 08-Dun Ringill
DR13      -3.45 dB   -19.51 dB      7:43 09-Flying Dutchman
DR12      -3.95 dB   -18.75 dB      3:37 10-Elegy
--------------------------------------------------------------------------------

Number of tracks:  10
Official DR value: DR12

Samplerate:        96000 Hz
Channels:          2
Bits per sample:   24
Bitrate:           2661 kbps
Codec:             FLAC
================================================================================
->
=========================================================================================================================================================
->
Steven Wilson Album 5.1 Remix
->
foobar2000 1.5 / Dynamic Range Meter 1.1.1
log date: 2019-12-17 02:16:21

--------------------------------------------------------------------------------
Analyzed: Jethro Tull / Stormwatch ...The 40th Anniversary Force 10 Edition... (Steven Wilson Album 5.1 Remix)
--------------------------------------------------------------------------------

DR         Peak         RMS     Duration Track
--------------------------------------------------------------------------------
DR13      -0.11 dB   -18.80 dB      3:11 01-North Sea Oil
DR14      -0.10 dB   -19.33 dB      4:00 02-Orion
DR13      -3.14 dB   -21.58 dB      2:46 03-Home
DR14      -0.06 dB   -20.04 dB      9:12 04-Dark Ages
DR13      -0.90 dB   -20.10 dB      3:58 05-Warm Sporran
DR12      -0.10 dB   -18.16 dB      4:30 06-Something's On The Move
DR12      -0.08 dB   -18.63 dB      4:25 07-Old Ghosts
DR13      -2.30 dB   -24.21 dB      2:41 08-Dun Ringill
DR13      -0.49 dB   -20.54 dB      7:43 09-Flying Dutchman
DR13      -1.71 dB   -21.42 dB      3:36 10-Elegy
--------------------------------------------------------------------------------

Number of tracks:  10
Official DR value: DR13

Samplerate:        96000 Hz
Channels:          6
Bits per sample:   24
Bitrate:           6120 kbps
Codec:             FLAC
================================================================================
->
=========================================================================================================================================================
->
Steven Wilson Album Stereo Remix
->
foobar2000 1.5 / Dynamic Range Meter 1.1.1
log date: 2019-12-17 02:16:32

--------------------------------------------------------------------------------
Analyzed: Jethro Tull / Stormwatch ...The 40th Anniversary Force 10 Edition... (Steven Wilson Album Stereo Remix)
--------------------------------------------------------------------------------

DR         Peak         RMS     Duration Track
--------------------------------------------------------------------------------
DR11      -0.10 dB   -13.09 dB      3:11 01-North Sea Oil
DR11      -0.10 dB   -13.84 dB      4:00 02-Orion
DR12      -0.16 dB   -16.08 dB      2:47 03-Home
DR12      -0.10 dB   -14.68 dB      9:12 04-Dark Ages
DR12      -0.10 dB   -14.00 dB      3:58 05-Warm Sporran
DR11      -0.10 dB   -12.75 dB      4:30 06-Something's On The Move
DR11      -0.10 dB   -13.03 dB      4:25 07-Old Ghosts
DR13      -0.10 dB   -18.37 dB      2:41 08-Dun Ringill
DR11      -0.10 dB   -14.29 dB      7:43 09-Flying Dutchman
DR13      -0.10 dB   -15.88 dB      3:36 10-Elegy
--------------------------------------------------------------------------------

Number of tracks:  10
Official DR value: DR12

Samplerate:        96000 Hz
Channels:          2
Bits per sample:   24
Bitrate:           2643 kbps
Codec:             FLAC
================================================================================
->
=========================================================================================================================================================
->
Associated Tracks: Original Mixes
->
foobar2000 1.5 / Dynamic Range Meter 1.1.1
log date: 2019-12-17 02:13:21

--------------------------------------------------------------------------------
Analyzed: Jethro Tull / Stormwatch ...The 40th Anniversary Force 10 Edition... (Associated Tracks: Original Mixes)
--------------------------------------------------------------------------------

DR         Peak         RMS     Duration Track
--------------------------------------------------------------------------------
DR12      -2.63 dB   -18.13 dB      4:25 01-A Stitch In Time
DR11      -5.83 dB   -19.94 dB      3:00 02-King Henry's Madrigal
DR7       -2.16 dB   -13.62 dB      2:42 03-Sweet Dream Fanfare
DR12      -3.13 dB   -17.19 dB      4:45 04-Sweet Dream (Live)
DR11      -3.73 dB   -17.74 dB      3:43 05-A Stitch In Time (Single Edit)
--------------------------------------------------------------------------------

Number of tracks:  5
Official DR value: DR11

Samplerate:        96000 Hz
Channels:          2
Bits per sample:   24
Bitrate:           2979 kbps
Codec:             FLAC
================================================================================
->
=========================================================================================================================================================
->
Associated Tracks: Steven Wilson 5.1 Mixes
->
foobar2000 1.5 / Dynamic Range Meter 1.1.1
log date: 2019-12-17 02:14:07

--------------------------------------------------------------------------------
Analyzed: Jethro Tull / Stormwatch ...The 40th Anniversary Force 10 Edition... (Associated Tracks: Steven Wilson 5.1 Mixes)
--------------------------------------------------------------------------------

DR         Peak         RMS     Duration Track
--------------------------------------------------------------------------------
DR12      -0.39 dB   -19.52 dB      3:37 01-Crossword
DR13       0.00 dB   -20.21 dB     11:55 02-Dark Ages (Early Version)
DR13      -0.75 dB   -19.75 dB      3:35 03-Kelpie
DR12      -4.43 dB   -23.84 dB      2:43 04-Dun Ringill (Early Version)
DR13      -0.09 dB   -18.98 dB      4:28 05-A Stitch In Time
DR14      -0.11 dB   -21.77 dB      2:40 06-A Single Man
DR12      -6.21 dB   -23.67 dB      3:45 07-Broadford Bazaar
DR13      -0.09 dB   -19.59 dB      3:01 08-King Henry's Madrigal
DR14      -0.09 dB   -19.63 dB      9:14 09-Orion (Full Version)
DR13      -0.08 dB   -19.89 dB      4:46 10-Urban Apocalypse
DR11      -0.69 dB   -19.39 dB      5:16 11-The Lyrikon Blues
DR13      -0.09 dB   -18.77 dB      6:33 12-Man Of God
DR13      -1.43 dB   -20.26 dB      3:32 13-Rock Instrumental (Unfinished Master)
--------------------------------------------------------------------------------

Number of tracks:  13
Official DR value: DR13

Samplerate:        96000 Hz
Channels:          6
Bits per sample:   24
Bitrate:           6785 kbps
Codec:             FLAC
================================================================================
->
=========================================================================================================================================================
->
Associated Tracks: Steven Wilson Stereo Mixes
->
foobar2000 1.5 / Dynamic Range Meter 1.1.1
log date: 2019-12-17 02:14:24

--------------------------------------------------------------------------------
Analyzed: Jethro Tull / Stormwatch ...The 40th Anniversary Force 10 Edition... (Associated Tracks: Steven Wilson Stereo Mixes)
--------------------------------------------------------------------------------

DR         Peak         RMS     Duration Track
--------------------------------------------------------------------------------
DR12      -0.10 dB   -13.87 dB      3:38 01-Crossword
DR12      -0.10 dB   -14.75 dB     11:55 02-Dark Ages (Early Version)
DR12      -0.10 dB   -14.23 dB      3:35 03-Kelpie
DR12      -3.80 dB   -19.20 dB      2:43 04-Dun Ringill (Early Version)
DR11      -0.10 dB   -13.26 dB      4:28 05-A Stitch In Time
DR12      -0.10 dB   -16.14 dB      2:40 06-A Single Man
DR12      -2.11 dB   -17.84 dB      3:46 07-Broadford Bazaar
DR11      -0.10 dB   -13.74 dB      3:01 08-King Henry's Madrigal
DR11      -0.10 dB   -14.02 dB      9:14 09-Orion (Full Version)
DR10      -0.10 dB   -12.73 dB      4:46 10-Urban Apocalypse
DR11      -0.10 dB   -13.62 dB      5:16 11-The Lyrikon Blues
DR11      -0.10 dB   -13.17 dB      6:33 12-Man Of God
DR13      -0.10 dB   -14.37 dB      3:32 13-Rock Instrumental (Unfinished Master)
DR11      -2.99 dB   -19.54 dB      2:31 14-Sweet Dream Fanfare
DR11      -0.10 dB   -12.36 dB      4:38 15-Sweet Dream (Live)
--------------------------------------------------------------------------------

Number of tracks:  15
Official DR value: DR12

Samplerate:        96000 Hz
Channels:          2
Bits per sample:   24
Bitrate:           2963 kbps
Codec:             FLAC
================================================================================




Create a new paste based on this one


Comments: