[ create a new paste ] login | about

Link: http://codepad.org/W5BsWoBa    [ raw code | fork ]

Plain Text, pasted on May 13:
[CUETools log; Date: 5/13/2016 7:01:26 AM; Version: 2.1.5]
[CTDB TOCID: sNY4SHHDL3zSfPk8mhV0n0nuIP4-] found.
Track | CTDB Status
  1   | (35/35) Accurately ripped
  2   | (35/35) Accurately ripped
  3   | (35/35) Accurately ripped
  4   | (35/35) Accurately ripped
  5   | (35/35) Accurately ripped
  6   | (35/35) Accurately ripped
  7   | (35/35) Accurately ripped
  8   | (35/35) Accurately ripped
  9   | (35/35) Accurately ripped
 10   | (35/35) Accurately ripped
 11   | (35/35) Accurately ripped
 12   | (35/35) Accurately ripped
[AccurateRip ID: 0010df9b-009e06a9-85093a0c] found.
Track   [  CRC   |   V2   ] Status
 01     [c82f60c1|ce5a30f0] (12+09/62) Accurately ripped
 02     [3a4479d3|80730219] (12+10/64) Accurately ripped
 03     [ae04c065|213ae938] (12+09/63) Accurately ripped
 04     [8b5792be|5441f0c7] (12+10/64) Accurately ripped
 05     [8c928711|07b3b135] (12+09/62) Accurately ripped
 06     [7264e392|bd9ce112] (13+09/64) Accurately ripped
 07     [d164e7fc|c27c4bc0] (12+09/62) Accurately ripped
 08     [f4da175f|9b68fbd4] (12+09/62) Accurately ripped
 09     [0a8bc90d|df0e1c75] (12+09/61) Accurately ripped
 10     [25763b4a|099437ee] (12+09/62) Accurately ripped
 11     [0d6edb19|047ad0ab] (11+09/61) Accurately ripped
 12     [4bb43f64|7719f268] (12+10/63) Accurately ripped
Offsetted by 22:
 01     [1742cac9] (02/62) Accurately ripped
 02     [43586737] (02/64) Accurately ripped
 03     [883f482b] (02/63) Accurately ripped
 04     [777e9e1a] (02/64) Accurately ripped
 05     [3c44dd4b] (02/62) Accurately ripped
 06     [67d3db2a] (02/64) Accurately ripped
 07     [32b1a712] (02/62) Accurately ripped
 08     [995b7a2b] (02/62) Accurately ripped
 09     [8790dfeb] (02/61) Accurately ripped
 10     [74062dbc] (02/62) Accurately ripped
 11     [30c10f6f] (02/61) Accurately ripped
 12     [40516464] (02/63) Accurately ripped
Offsetted by 58:
 01     [afee3279] (15/62) Accurately ripped
 02     [af4a774f] (16/64) Accurately ripped
 03     [4a70836f] (16/63) Accurately ripped
 04     [858ff682] (16/64) Accurately ripped
 05     [447ff607] (16/62) Accurately ripped
 06     [8515133a] (16/64) Accurately ripped
 07     [2f00b136] (16/62) Accurately ripped
 08     [03a39033] (16/62) Accurately ripped
 09     [6b6aa83f] (15/61) Accurately ripped
 10     [c6090048] (16/62) Accurately ripped
 11     [6a8d6513] (16/61) Accurately ripped
 12     [976e2f0a] (16/63) Accurately ripped
Offsetted by 64:
 01     [f40ac3c1] (00/62) No match (V2 was not tested)
 02     [6bf2cf53] (00/64) No match (V2 was not tested)
 03     [402362a5] (00/63) No match (V2 was not tested)
 04     [dd3d853e] (00/64) No match (V2 was not tested)
 05     [45df24d1] (00/62) No match (V2 was not tested)
 06     [df4a9c92] (00/64) No match (V2 was not tested)
 07     [03b8883c] (00/62) No match (V2 was not tested)
 08     [eaaf93df] (00/62) No match (V2 was not tested)
 09     [bc0ef44d] (00/61) No match (V2 was not tested)
 10     [7e5ece0a] (00/62) No match (V2 was not tested)
 11     [742f7359] (00/61) No match (V2 was not tested)
 12     [9e6650b7] (00/63) No match (V2 was not tested)

Track Peak [ CRC32  ] [W/O NULL] [  LOG   ]
 --  100.0 [E6D89151] [DC2A57C6]   CRC32   
 01   99.3 [973E16FB] [673CC064]           
 02   84.7 [FB875FC4] [7C18D0DA]           
 03   95.0 [71D6AA5E] [75FC6995]           
 04   84.7 [5C177ADB] [99A2BD3E]           
 05   99.8 [592C3EA5] [E20E035B]           
 06   96.0 [E0AABB2C] [19F5E907]           
 07   92.5 [47CA8122] [64A87AF7]           
 08  100.0 [278710B7] [59E33FC9]           
 09   90.7 [1A332346] [3400F5FD]           
 10   85.0 [5A6B13CD] [FED3B848]           
 11   91.0 [291A6C2B] [D300FCA2]           
 12   90.7 [19A0C660] [D74BEBAE]           



Create a new paste based on this one


Comments: