[ create a new paste ] login | about

Link: http://codepad.org/WACuZD9l    [ raw code | fork ]

Plain Text, pasted on Aug 7:
Exact Audio Copy V1.3 from 2. September 2016

EAC extraction logfile from 17. July 2017, 21:58

Ry Cooder / Boomer's Story (2017 MFSL)

Used drive  : PLEXTOR CD-R   PREMIUM   Adapter: 1  ID: 1

Read mode               : Secure
Utilize accurate stream : Yes
Defeat audio cache      : Yes
Make use of C2 pointers : No

Read offset correction                      : 30
Overread into Lead-In and Lead-Out          : No
Fill up missing offset samples with silence : Yes
Delete leading and trailing silent blocks   : No
Null samples used in CRC calculations       : Yes
Used interface                              : Native Win32 interface for Win NT & 2000
Gap handling                                : Appended to previous track

Used output format              : User Defined Encoder
Selected bitrate                : 768 kBit/s
Quality                         : High
Add ID3 tag                     : No
Command line compressor         : C:\Program Files (x86)\Exact Audio Copy\FLAC\FLAC.EXE
Additional command line options : -6 -e -p -V -T "ARTIST=%artist%" -T "TITLE=%title%" -T "ALBUM=%albumtitle%" -T "DATE=%year%" -T "TRACKNUMBER=%tracknr%" -T "GENRE=%genre%" -T "PERFORMER=%albuminterpret%" -T "COMPOSER=%composer%" %haslyrics%--tag-from-file=LYRICS="%lyricsfile%"%haslyrics% -T "ALBUMARTIST=%albumartist%" -T "DISCNUMBER=%cdnumber%" -T "TOTALDISCS=%totalcds%" -T "TOTALTRACKS=%numtracks%" -T "COMMENT=%comment%" %source% -o %dest%


TOC of the extracted CD

     Track |   Start  |  Length  | Start sector | End sector 
    ---------------------------------------------------------
        1  |  0:00.00 |  4:15.51 |         0    |    19175   
        2  |  4:15.51 |  4:12.48 |     19176    |    38123   
        3  |  8:28.24 |  2:20.23 |     38124    |    48646   
        4  | 10:48.47 |  4:27.05 |     48647    |    68676   
        5  | 15:15.52 |  4:32.54 |     68677    |    89130   
        6  | 19:48.31 |  3:26.66 |     89131    |   104646   
        7  | 23:15.22 |  3:39.38 |    104647    |   121109   
        8  | 26:54.60 |  3:02.70 |    121110    |   134829   
        9  | 29:57.55 |  4:38.04 |    134830    |   155683   
       10  | 34:35.59 |  4:32.72 |    155684    |   176155   


Track  1

     Filename C:\tmp\00_RIPS\01 - Boomer's Story.wav

     Pre-gap length  0:00:02.00

     Peak level 94.4 %
     Extraction speed 8.8 X
     Track quality 100.0 %
     Test CRC D895C456
     Copy CRC D895C456
     Accurately ripped (confidence 5)  [BAFB9D95]  (AR v2)
     Copy OK

Track  2

     Filename C:\tmp\00_RIPS\02 - Cherry Ball Blues.wav

     Pre-gap length  0:00:02.45

     Peak level 95.2 %
     Extraction speed 8.3 X
     Track quality 99.9 %
     Test CRC 893DBF49
     Copy CRC 893DBF49
     Accurately ripped (confidence 5)  [33A10691]  (AR v2)
     Copy OK

Track  3

     Filename C:\tmp\00_RIPS\03 - Crow Black Chicken.wav

     Pre-gap length  0:00:01.85

     Peak level 88.8 %
     Extraction speed 8.8 X
     Track quality 100.0 %
     Test CRC 23C3E2B7
     Copy CRC 23C3E2B7
     Accurately ripped (confidence 5)  [84335229]  (AR v2)
     Copy OK

Track  4

     Filename C:\tmp\00_RIPS\04 - Ax Sweet Mama.wav

     Pre-gap length  0:00:03.18

     Peak level 93.7 %
     Extraction speed 10.9 X
     Track quality 100.0 %
     Test CRC 7E79012C
     Copy CRC 7E79012C
     Accurately ripped (confidence 5)  [D98DBE1A]  (AR v2)
     Copy OK

Track  5

     Filename C:\tmp\00_RIPS\05 - Maria Elena.wav

     Pre-gap length  0:00:02.16

     Peak level 96.2 %
     Extraction speed 11.6 X
     Track quality 100.0 %
     Test CRC CE121037
     Copy CRC CE121037
     Accurately ripped (confidence 5)  [B4052DEC]  (AR v2)
     Copy OK

Track  6

     Filename C:\tmp\00_RIPS\06 - Dark End of the Street.wav

     Pre-gap length  0:00:03.61

     Peak level 87.9 %
     Extraction speed 11.6 X
     Track quality 100.0 %
     Test CRC F753600B
     Copy CRC F753600B
     Accurately ripped (confidence 5)  [E28077A8]  (AR v2)
     Copy OK

Track  7

     Filename C:\tmp\00_RIPS\07 - Rally 'Round the Flag.wav

     Pre-gap length  0:00:03.00

     Peak level 92.2 %
     Extraction speed 12.1 X
     Track quality 100.0 %
     Test CRC D6A32381
     Copy CRC D6A32381
     Accurately ripped (confidence 5)  [4415E980]  (AR v2)
     Copy OK

Track  8

     Filename C:\tmp\00_RIPS\08 - Comin' in on a Wing and a Prayer.wav

     Pre-gap length  0:00:03.77

     Peak level 95.4 %
     Extraction speed 10.3 X
     Track quality 99.9 %
     Test CRC FC978613
     Copy CRC FC978613
     Accurately ripped (confidence 5)  [0F108E5F]  (AR v2)
     Copy OK

Track  9

     Filename C:\tmp\00_RIPS\09 - President Kennedy.wav

     Pre-gap length  0:00:02.96

     Peak level 92.2 %
     Extraction speed 13.7 X
     Track quality 100.0 %
     Test CRC 1609A2DF
     Copy CRC 1609A2DF
     Accurately ripped (confidence 5)  [BED79EB5]  (AR v2)
     Copy OK

Track 10

     Filename C:\tmp\00_RIPS\10 - Good Morning Mr. Railroad Man.wav

     Pre-gap length  0:00:00.01

     Peak level 91.9 %
     Extraction speed 14.1 X
     Track quality 100.0 %
     Test CRC 865AC4DC
     Copy CRC 865AC4DC
     Accurately ripped (confidence 5)  [F1CF789C]  (AR v2)
     Copy OK


All tracks accurately ripped

No errors occurred

End of status report

---- CUETools DB Plugin V2.1.6

[CTDB TOCID: MQikDsDb6.WcCRrBrovPTLUh3Js-] found
Submit result: MQikDsDb6.WcCRrBrovPTLUh3Js- has been confirmed
Track | CTDB Status
  1   | (5/5) Accurately ripped
  2   | (5/5) Accurately ripped
  3   | (5/5) Accurately ripped
  4   | (5/5) Accurately ripped
  5   | (5/5) Accurately ripped
  6   | (5/5) Accurately ripped
  7   | (5/5) Accurately ripped
  8   | (5/5) Accurately ripped
  9   | (5/5) Accurately ripped
 10   | (5/5) Accurately ripped


==== Log checksum 71CD75ADF027CF63DEFD06082455DE2205AE81DD8E04520CCD3D929EAFC4DF9B ====



Create a new paste based on this one


Comments: