[ create a new paste ] login | about

Link: http://codepad.org/WGXChuaD    [ raw code | fork ]

Plain Text, pasted on Jul 24:
foobar2000 1.4.4 / Dynamic Range Meter 1.1.1
log date: 2019-07-23 23:00:53

--------------------------------------------------------------------------------
Analyzed: Pink Floyd / The Dark Side Of The Moon  [MFSL UHQR]
--------------------------------------------------------------------------------

DR         Peak         RMS     Duration Track
--------------------------------------------------------------------------------
DR10     -10.61 dB   -23.14 dB      1:13 01-Speak to Me
DR12      -1.22 dB   -15.53 dB      2:52 02-Breathe
DR11      -1.19 dB   -16.88 dB      3:39 03-On the Run
DR11      -1.20 dB   -14.48 dB      7:00 04-Time
DR10      -0.40 dB   -15.82 dB      4:50 05-The Great Gig in the Sky
DR12      -0.33 dB   -15.58 dB      6:23 06-Money
DR10      -3.41 dB   -17.84 dB      7:51 07-Us and Them
DR12      -0.56 dB   -14.97 dB      3:26 08-Any Colour You Like
DR11      -1.91 dB   -18.28 dB      3:47 09-Brain Damage
DR9       -1.92 dB   -14.82 dB      2:12 10-Eclipse
--------------------------------------------------------------------------------

Number of tracks:  10
Official DR value: DR11

Samplerate:        44100 Hz
Channels:          2
Bits per sample:   16
Bitrate:           762 kbps
Codec:             FLAC
================================================================================




Create a new paste based on this one


Comments: