[ create a new paste ] login | about

Link: http://codepad.org/WL4hNhao    [ raw code | fork ]

Plain Text, pasted on Sep 5:
Disc 1

foobar2000 1.4.6 / Dynamic Range Meter 1.1.1
log date: 2019-09-04 21:52:31

--------------------------------------------------------------------------------
Analyzed: Rundfunk-Sinfonieorchester Berlin, conducted by Marek Janowski / Richard Wagner: Das Rheingold
--------------------------------------------------------------------------------

DR         Peak         RMS     Duration Track
--------------------------------------------------------------------------------
DR13     -12.57 dB   -30.90 dB      4:13 01-Vorspiel (Prelude)
DR14      -8.43 dB   -29.50 dB      2:25 02-Weia! Waga!
DR16      -4.29 dB   -28.72 dB      4:58 03-Garstig glatter glitschriger Glimmer!
DR15      -5.77 dB   -29.17 dB      2:23 04-Wallala! Lalaleia! Leialalei!
DR14      -5.77 dB   -27.77 dB      5:45 05-Lugt, Schwestern! Die Weckerin lacht
DR14      -4.95 dB   -26.30 dB      1:47 06-Der Welt Erbe gewänne zu eigen
DR14      -9.18 dB   -30.08 dB      3:45 07-Orchesterzwischenspiel
DR12     -12.01 dB   -29.98 dB      1:51 08-Wotan! Gemahl! Erwache!
DR15      -4.77 dB   -28.96 dB      6:19 09-Nur Wonne schafft dir
DR17      -4.65 dB   -28.06 dB      7:02 10-Sanft schloss Schlaf dein Aug'
DR14      -7.65 dB   -28.06 dB      1:38 11-Zu mir, Freia!
DR14     -11.15 dB   -30.99 dB      3:27 12-Endlich, Loge!
DR14     -10.31 dB   -31.22 dB      5:30 13-Immer ist Undank Loges Lohn!
DR15     -10.90 dB   -31.53 dB      4:15 14-Taugte wohl des goldnen Tandes
DR16      -4.95 dB   -29.30 dB      4:38 15-Hör', Wotan, der Harrenden Wort!
DR16      -8.94 dB   -31.42 dB      3:51 16-Jetzt fand ich's
DR14      -4.62 dB   -24.87 dB      2:37 17-Verwandlungsmusik
DR15      -4.26 dB   -27.64 dB      4:08 18-Hehe! Hehe!
--------------------------------------------------------------------------------

Number of tracks:  18
Official DR value: DR15

Samplerate:        2822400 Hz / PCM Samplerate: 176400 Hz
Channels:          5
Bits per sample:   1
Bitrate:           14112 kbps
Codec:             DST64
================================================================================

--------------------------------------------------------------------------------
Analyzed: Rundfunk-Sinfonieorchester Berlin, conducted by Marek Janowski / Richard Wagner: Das Rheingold
--------------------------------------------------------------------------------

DR         Peak         RMS     Duration Track
--------------------------------------------------------------------------------
DR13     -12.56 dB   -29.37 dB      4:13 01-Vorspiel (Prelude)
DR14      -9.81 dB   -27.59 dB      2:25 02-Weia! Waga!
DR17      -4.37 dB   -26.85 dB      4:58 03-Garstig glatter glitschriger Glimmer!
DR15      -7.47 dB   -27.45 dB      2:23 04-Wallala! Lalaleia! Leialalei!
DR13      -6.04 dB   -26.29 dB      5:45 05-Lugt, Schwestern! Die Weckerin lacht
DR13      -7.22 dB   -24.60 dB      1:47 06-Der Welt Erbe gewänne zu eigen
DR14      -9.14 dB   -28.61 dB      3:45 07-Orchesterzwischenspiel
DR12     -11.78 dB   -28.10 dB      1:51 08-Wotan! Gemahl! Erwache!
DR14      -6.67 dB   -26.97 dB      6:19 09-Nur Wonne schafft dir
DR16      -4.30 dB   -26.33 dB      7:02 10-Sanft schloss Schlaf dein Aug'
DR13      -8.63 dB   -26.18 dB      1:38 11-Zu mir, Freia!
DR15     -11.62 dB   -29.15 dB      3:27 12-Endlich, Loge!
DR14     -11.98 dB   -29.47 dB      5:30 13-Immer ist Undank Loges Lohn!
DR16      -9.76 dB   -29.81 dB      4:15 14-Taugte wohl des goldnen Tandes
DR16      -4.54 dB   -27.31 dB      4:38 15-Hör', Wotan, der Harrenden Wort!
DR16      -7.41 dB   -29.62 dB      3:51 16-Jetzt fand ich's
DR13      -4.95 dB   -23.35 dB      2:37 17-Verwandlungsmusik
DR14      -6.11 dB   -26.19 dB      4:08 18-Hehe! Hehe!
--------------------------------------------------------------------------------

Number of tracks:  18
Official DR value: DR14

Samplerate:        2822400 Hz / PCM Samplerate: 176400 Hz
Channels:          2
Bits per sample:   1
Bitrate:           5645 kbps
Codec:             DST64
================================================================================

=========================================================================================================================================================

Disc 2

foobar2000 1.4.6 / Dynamic Range Meter 1.1.1
log date: 2019-09-04 22:02:23

--------------------------------------------------------------------------------
Analyzed: Rundfunk-Sinfonieorchester Berlin, conducted by Marek Janowski / Richard Wagner: Das Rheingold
--------------------------------------------------------------------------------

DR         Peak         RMS     Duration Track
--------------------------------------------------------------------------------
DR15      -8.29 dB   -30.80 dB      3:32 01-Wer hälfe mir?
DR15      -4.97 dB   -27.00 dB      2:28 02-Mit eurem Gefrage
DR15      -6.77 dB   -29.84 dB      4:35 03-Was wollt ihr hier?
DR16      -5.83 dB   -29.91 dB      4:41 04-Habt acht! Habt acht!
DR14      -4.15 dB   -27.66 dB      3:34 05-Riesen-Wurm winde sich ringelnd!
DR14      -5.95 dB   -26.54 dB      3:19 06-Verwandlungsmusik
DR15     -10.27 dB   -30.98 dB      3:10 07-Da, Vetter, sitze du fest!
DR15      -4.03 dB   -27.15 dB      3:16 08-Wohlan, die Nibelungen rief ich mir nah
DR14      -5.76 dB   -28.09 dB      4:37 09-Zu deiner Lösung musst du ihn lassen
DR16      -4.62 dB   -27.91 dB      4:03 10-Bin ich nun frei?
DR13     -10.20 dB   -31.12 dB      3:07 11-Lauschtest du seinem Liebesgruß?
DR14     -11.35 dB   -30.77 dB      3:18 12-Halt! Nicht sie berührt!
DR14      -8.50 dB   -29.26 dB      2:01 13-Nicht so leicht und locker gefügt!
DR15      -4.43 dB   -27.52 dB      2:41 14-Freia, die schöne
DR15      -9.59 dB   -31.52 dB      5:30 15-Weiche, Wotan! weiche!
DR15      -4.26 dB   -26.76 dB      3:22 16-Hört, ihr Riesen!
DR16      -5.14 dB   -29.38 dB      2:27 17-Furchtbar nun erfind' ich des Fluches Kraft!
DR15      -3.86 dB   -28.54 dB      2:45 18-Schwüles Gedünst schwebt in der Luft
DR14      -5.87 dB   -27.78 dB      4:23 19-Zur Burg führt die Brücke
DR13      -4.15 dB   -23.66 dB      3:05 20-Rheingold! Rheingold
--------------------------------------------------------------------------------

Number of tracks:  20
Official DR value: DR15

Samplerate:        2822400 Hz / PCM Samplerate: 176400 Hz
Channels:          5
Bits per sample:   1
Bitrate:           14112 kbps
Codec:             DST64
================================================================================

--------------------------------------------------------------------------------
Analyzed: Rundfunk-Sinfonieorchester Berlin, conducted by Marek Janowski / Richard Wagner: Das Rheingold
--------------------------------------------------------------------------------

DR         Peak         RMS     Duration Track
--------------------------------------------------------------------------------
DR14      -9.13 dB   -29.49 dB      3:32 01-Wer hälfe mir?
DR15      -5.86 dB   -25.67 dB      2:28 02-Mit eurem Gefrage
DR16      -7.87 dB   -28.17 dB      4:35 03-Was wollt ihr hier?
DR16      -7.50 dB   -28.37 dB      4:41 04-Habt acht! Habt acht!
DR14      -5.00 dB   -26.88 dB      3:34 05-Riesen-Wurm winde sich ringelnd!
DR13      -6.99 dB   -25.63 dB      3:19 06-Verwandlungsmusik
DR15     -10.24 dB   -29.44 dB      3:10 07-Da, Vetter, sitze du fest!
DR14      -4.28 dB   -24.52 dB      3:16 08-Wohlan, die Nibelungen rief ich mir nah
DR14      -8.12 dB   -26.61 dB      4:37 09-Zu deiner Lösung musst du ihn lassen
DR16      -4.42 dB   -26.56 dB      4:03 10-Bin ich nun frei?
DR14     -10.73 dB   -29.78 dB      3:07 11-Lauschtest du seinem Liebesgruß?
DR15     -11.39 dB   -29.16 dB      3:18 12-Halt! Nicht sie berührt!
DR14      -8.23 dB   -27.72 dB      2:01 13-Nicht so leicht und locker gefügt!
DR14      -5.68 dB   -26.18 dB      2:41 14-Freia, die schöne
DR14      -9.67 dB   -30.05 dB      5:30 15-Weiche, Wotan! weiche!
DR16      -4.52 dB   -25.50 dB      3:22 16-Hört, ihr Riesen!
DR16      -6.03 dB   -28.26 dB      2:27 17-Furchtbar nun erfind' ich des Fluches Kraft!
DR16      -4.46 dB   -27.17 dB      2:45 18-Schwüles Gedünst schwebt in der Luft
DR13      -5.23 dB   -26.27 dB      4:23 19-Zur Burg führt die Brücke
DR11      -3.89 dB   -20.92 dB      3:05 20-Rheingold! Rheingold
--------------------------------------------------------------------------------

Number of tracks:  20
Official DR value: DR14

Samplerate:        2822400 Hz / PCM Samplerate: 176400 Hz
Channels:          2
Bits per sample:   1
Bitrate:           5645 kbps
Codec:             DST64
================================================================================





Create a new paste based on this one


Comments: