[ create a new paste ] login | about

Link: http://codepad.org/WNTJRgke    [ raw code | fork ]

Plain Text, pasted on Jan 17:
Exact Audio Copy V0.99 prebeta 4 from 23. January 2008

EAC extraction logfile from 7. January 2010, 1:43

Tina Turner  / All The Best

Used drive  : ASUS    DRW-2014S1T   Adapter: 3  ID: 0

Read mode               : Secure
Utilize accurate stream : Yes
Defeat audio cache      : Yes
Make use of C2 pointers : No

Read offset correction                      : 6
Overread into Lead-In and Lead-Out          : No
Fill up missing offset samples with silence : Yes
Delete leading and trailing silent blocks   : No
Null samples used in CRC calculations       : Yes
Used interface                              : Installed external ASPI interface

Used output format : Internal WAV Routines
Sample format      : 44.100 Hz; 16 Bit; Stereo


TOC of the extracted CD

     Track |   Start  |  Length  | Start sector | End sector 
    ---------------------------------------------------------
        1  |  0:00.00 |  5:34.71 |         0    |    25120   
        2  |  5:34.71 |  4:03.31 |     25121    |    43376   
        3  |  9:38.27 |  4:29.28 |     43377    |    63579   
        4  | 14:07.55 |  4:17.32 |     63580    |    82886   
        5  | 18:25.12 |  3:45.67 |     82887    |    99828   
        6  | 22:11.04 |  3:43.36 |     99829    |   116589   
        7  | 25:54.40 |  4:20.01 |    116590    |   136090   
        8  | 30:14.41 |  4:37.57 |    136091    |   156922   
        9  | 34:52.23 |  4:16.53 |    156923    |   176175   
       10  | 39:09.01 |  3:16.69 |    176176    |   190944   
       11  | 42:25.70 |  4:50.07 |    190945    |   212701   
       12  | 47:16.02 |  4:05.02 |    212702    |   231078   
       13  | 51:21.04 |  5:00.57 |    231079    |   253635   
       14  | 56:21.61 |  3:48.55 |    253636    |   270790   
       15  | 60:10.41 |  5:11.09 |    270791    |   294124   
       16  | 65:21.50 |  4:09.69 |    294125    |   312868   
       17  | 69:31.44 |  4:22.41 |    312869    |   332559   


Range status and errors

Selected range

     Filename C:\òåìû òîððåíòà\TINA\CD2\Tina Turner  - All The Best (CD 2).wav

     Peak level 100.0 %
     Range quality 100.0 %
     Copy CRC C651887E
     Copy OK

No errors occurred

 
AccurateRip summary
 
Track  1  accurately ripped (confidence 119)  [D9B5A244]
Track  2  accurately ripped (confidence 123)  [66816E70]
Track  3  accurately ripped (confidence 117)  [AC9D107D]
Track  4  accurately ripped (confidence 116)  [92DA7721]
Track  5  accurately ripped (confidence 116)  [02803758]
Track  6  accurately ripped (confidence 115)  [24458730]
Track  7  accurately ripped (confidence 117)  [E9BD797D]
Track  8  accurately ripped (confidence 115)  [3D7069C7]
Track  9  accurately ripped (confidence 119)  [96DB8A28]
Track 10  accurately ripped (confidence 114)  [B96B1207]
Track 11  accurately ripped (confidence 116)  [B1EF0F81]
Track 12  accurately ripped (confidence 119)  [0EAD8D70]
Track 13  accurately ripped (confidence 116)  [5619490E]
Track 14  accurately ripped (confidence 121)  [C8DDBA72]
Track 15  accurately ripped (confidence 113)  [45D4B086]
Track 16  accurately ripped (confidence 116)  [9A9CB814]
Track 17  accurately ripped (confidence 108)  [858FD5BC]
 
All tracks accurately ripped

End of status report



Create a new paste based on this one


Comments: