[ create a new paste ] login | about

Link: http://codepad.org/WOWGFUss    [ raw code | fork ]

Plain Text, pasted on Sep 9:
foobar2000 1.5 / Dynamic Range Meter 1.1.1
log date: 2020-09-09 19:54:07

--------------------------------------------------------------------------------
Analyzed: ? / ?
--------------------------------------------------------------------------------

DR         Peak         RMS     Duration Track
--------------------------------------------------------------------------------
DR13      -2.64 dB   -18.43 dB      4:23 01-Rocky Mountain High
DR11      -5.94 dB   -19.02 dB      3:16 02-Country Roads
DR15      -4.14 dB   -21.46 dB      5:08 03-Back Home Again
DR14      -6.51 dB   -24.55 dB      2:59 04-I Guess He'd Rather Be In Colorado
DR13      -4.75 dB   -21.66 dB      4:11 05-Matthew
DR13      -6.92 dB   -22.72 dB      5:24 06-Sunshine On My Shoulders
DR17      -4.90 dB   -24.73 dB      4:11 07-Darcy Farrow
DR14      -0.83 dB   -18.74 dB      4:00 08-Wild Montana Skies
DR15      -5.65 dB   -23.64 dB      7:20 09-Leaving On A Jet Plane/Goodbye Again
DR15      -4.73 dB   -21.91 dB      4:13 10-Bet On The Blues
DR14      -3.56 dB   -21.47 dB      4:40 11-I'd Rather Be A Cowboy (Lady's Chains)
DR12      -5.08 dB   -20.99 dB      4:03 12-Fly Away
DR11      -6.06 dB   -21.19 dB      3:25 13-I'm Sorry
DR13      -4.05 dB   -20.24 dB      3:02 14-Annie's Song
DR17      -4.03 dB   -24.33 dB      4:26 15-Poems, Prayers & Promises
DR10      -2.37 dB   -16.54 dB      3:54 16-Calypso
--------------------------------------------------------------------------------

Number of tracks:  16
Official DR value: DR13

Samplerate:        2822400 Hz / PCM Samplerate: 176400 Hz
Channels:          2
Bits per sample:   1
Bitrate:           5645 kbps
Codec:             DSD64
================================================================================




Create a new paste based on this one


Comments: