[ create a new paste ] login | about

Link: http://codepad.org/WSKm3kuN    [ raw code | fork ]

Plain Text, pasted on Feb 27:
CD-QUALITY
----------

foobar2000 1.6.4 / Dynamic Range Meter 1.1.1
log date: 2021-02-27 20:52:14

--------------------------------------------------------------------------------
Analyzed: Roberta Flack / First Take (Remastered Deluxe Edition)
--------------------------------------------------------------------------------

DR         Peak         RMS     Duration Track
--------------------------------------------------------------------------------
DR11       0.00 dB   -14.51 dB      5:17 01-Compared To What (2020 Remaster)
DR9       -0.09 dB   -13.37 dB      6:57 02-Angelitos Negros (2020 Remaster)
DR10      -0.10 dB   -14.38 dB      6:11 03-Our Ages Or Our Hearts (2020 Remaster)
DR11      -0.11 dB   -15.82 dB      6:10 04-I Told Jesus (2020 Remaster)
DR12      -0.11 dB   -15.62 dB      4:09 05-Hey, That's No Way To Say Goodbye (2020 Remaster)
DR12      -1.20 dB   -18.34 dB      5:23 06-The First Time Ever I Saw Your Face (2020 Remaster)
DR12      -0.55 dB   -16.86 dB      5:09 07-Tryin' Times (2020 Remaster)
DR10      -0.96 dB   -16.91 dB      7:06 08-Ballad of the Sad Young Men (2020 Remaster)
DR11      -0.67 dB   -13.99 dB      4:41 09-Compared To What (Single Edit) (Single Edit; 2020 Remaster)
DR12      -0.10 dB   -16.40 dB      4:20 10-The First Time Ever I Saw Your Face (Single Edit) (2020 Remaster)
DR11      -0.08 dB   -14.75 dB      5:43 11-Trade Winds (2020 Remaster)
--------------------------------------------------------------------------------

Number of tracks:  11
Official DR value: DR11

Samplerate:        44100 Hz
Channels:          2
Bits per sample:   16
Bitrate:           774 kbps
Codec:             FLAC
================================================================================

--------------------------------------------------------------------------------
Statistics for: 12-All the Way (Live; 2020 Remaster 44.1 kHz)
Number of samples: 22914116
Duration: 8:40 
--------------------------------------------------------------------------------

                 Left              Right

Peak Value:     -3.85 dB   ---     -3.96 dB   
Avg RMS:       -22.39 dB   ---    -22.01 dB   
DR channel:     13.05 dB   ---     13.00 dB   
--------------------------------------------------------------------------------

Official DR Value: DR13

Samplerate:        44100 Hz
Channels:          2
Bits per sample:   24
Bitrate:           1335 kbps
Codec:             FLAC
================================================================================
--------------------------------------------------------------------------------
Analyzed: Roberta Flack / First Take (Remastered Deluxe Edition)
--------------------------------------------------------------------------------

DR         Peak         RMS     Duration Track
--------------------------------------------------------------------------------
DR10      -0.08 dB   -12.17 dB      1:20 13-This Could Be The Start Of Something
DR10       0.00 dB   -12.84 dB      4:19 14-Groove Me
DR10      -0.09 dB   -14.50 dB      6:22 15-Nobody Knows You When You're Down and Out
DR11      -0.09 dB   -17.18 dB      5:32 16-Hush-A-Bye
DR13      -0.07 dB   -17.91 dB      9:13 17-Afro Blue
DR10      -0.09 dB   -16.23 dB      3:56 18-It's Way Past Suppertime
DR12      -0.08 dB   -15.56 dB      7:15 19-Frankie and Johnny
DR11       0.00 dB   -13.99 dB      2:44 20-On the Street Where You Live
DR13      -0.09 dB   -20.16 dB      5:52 21-The House Song
DR9       -0.06 dB   -11.95 dB      3:25 22-Ain't No Mountain High Enough
DR9       -0.08 dB   -13.44 dB      5:20 23-The Song Is Love
DR10      -0.09 dB   -14.76 dB      8:25 24-To Sir With Love
--------------------------------------------------------------------------------

Number of tracks:  12
Official DR value: DR11

Samplerate:        44100 Hz
Channels:          2
Bits per sample:   16
Bitrate:           770 kbps
Codec:             FLAC
================================================================================



HI-RES 24/96
------------

foobar2000 1.6.4 / Dynamic Range Meter 1.1.1
log date: 2021-02-27 20:52:54

--------------------------------------------------------------------------------
Analyzed: Roberta Flack / First Take (Remastered Deluxe Edition)
--------------------------------------------------------------------------------

DR         Peak         RMS     Duration Track
--------------------------------------------------------------------------------
DR11      -0.09 dB   -14.51 dB      5:17 01-Compared To What (2020 Remaster)
DR9       -0.08 dB   -13.37 dB      6:57 02-Angelitos Negros (2020 Remaster)
DR10      -0.10 dB   -14.37 dB      6:11 03-Our Ages Or Our Hearts (2020 Remaster)
DR11      -0.10 dB   -15.82 dB      6:10 04-I Told Jesus (2020 Remaster)
DR12      -0.10 dB   -15.61 dB      4:09 05-Hey, That's No Way To Say Goodbye (2020 Remaster)
DR12      -1.18 dB   -18.34 dB      5:23 06-The First Time Ever I Saw Your Face (2020 Remaster)
DR12      -0.55 dB   -16.86 dB      5:09 07-Tryin' Times (2020 Remaster)
DR10      -0.96 dB   -16.94 dB      7:06 08-Ballad of the Sad Young Men (2020 Remaster)
DR11      -0.50 dB   -13.98 dB      4:41 09-Compared To What (Single Edit) (Single Edit; 2020 Remaster)
DR12      -0.10 dB   -16.40 dB      4:20 10-The First Time Ever I Saw Your Face (Single Edit) (2020 Remaster)
DR11      -0.10 dB   -14.74 dB      5:43 11-Trade Winds (2020 Remaster)
DR10      -0.10 dB   -12.17 dB      1:20 13-This Could Be The Start Of Something
DR10      -0.10 dB   -12.84 dB      4:19 14-Groove Me
DR10      -0.10 dB   -14.50 dB      6:22 15-Nobody Knows You When You're Down and Out
DR11      -0.10 dB   -17.17 dB      5:32 16-Hush-A-Bye
DR13      -0.10 dB   -17.90 dB      9:13 17-Afro Blue
DR10      -0.10 dB   -16.22 dB      3:56 18-It's Way Past Suppertime
DR12      -0.10 dB   -15.56 dB      7:15 19-Frankie and Johnny
DR11      -0.10 dB   -13.99 dB      2:44 20-On the Street Where You Live
DR13      -0.10 dB   -20.16 dB      5:52 21-The House Song
DR9       -0.10 dB   -11.95 dB      3:25 22-Ain't No Mountain High Enough
DR9       -0.10 dB   -13.44 dB      5:20 23-The Song Is Love
DR10      -0.10 dB   -14.78 dB      8:25 24-To Sir With Love
--------------------------------------------------------------------------------

Number of tracks:  23
Official DR value: DR11

Samplerate:        96000 Hz
Channels:          2
Bits per sample:   24
Bitrate:           2849 kbps
Codec:             FLAC
================================================================================

foobar2000 1.6.4 / Dynamic Range Meter 1.1.1
log date: 2021-02-27 20:52:23

--------------------------------------------------------------------------------
Statistics for: 12-All the Way (Live; 2020 Remaster 44.1 kHz)
Number of samples: 22914116
Duration: 8:40 
--------------------------------------------------------------------------------

                 Left              Right

Peak Value:     -3.85 dB   ---     -3.96 dB   
Avg RMS:       -22.39 dB   ---    -22.01 dB   
DR channel:     13.05 dB   ---     13.00 dB   
--------------------------------------------------------------------------------

Official DR Value: DR13

Samplerate:        44100 Hz
Channels:          2
Bits per sample:   24
Bitrate:           1335 kbps
Codec:             FLAC
================================================================================


HI-RES 24/192
-------------

foobar2000 1.6.4 / Dynamic Range Meter 1.1.1
log date: 2021-02-27 20:34:13

--------------------------------------------------------------------------------
Analyzed: Roberta Flack / First Take (Remastered Deluxe Edition)
--------------------------------------------------------------------------------

DR         Peak         RMS     Duration Track
--------------------------------------------------------------------------------
DR11      -0.10 dB   -14.51 dB      5:17 01-Compared To What (2020 Remaster)
DR9       -0.10 dB   -13.37 dB      6:57 02-Angelitos Negros (2020 Remaster)
DR10      -0.10 dB   -14.37 dB      6:11 03-Our Ages Or Our Hearts (2020 Remaster)
DR11      -0.10 dB   -15.82 dB      6:10 04-I Told Jesus (2020 Remaster)
DR12      -0.10 dB   -15.61 dB      4:09 05-Hey, That's No Way To Say Goodbye (2020 Remaster)
DR12      -1.18 dB   -18.34 dB      5:23 06-The First Time Ever I Saw Your Face (2020 Remaster)
DR12      -0.55 dB   -16.85 dB      5:09 07-Tryin' Times (2020 Remaster)
DR10      -0.96 dB   -16.94 dB      7:06 08-Ballad of the Sad Young Men (2020 Remaster)
DR11      -0.47 dB   -13.98 dB      4:41 09-Compared To What (Single Edit) (Single Edit; 2020 Remaster)
DR12      -0.10 dB   -16.40 dB      4:20 10-The First Time Ever I Saw Your Face (Single Edit) (2020 Remaster)
DR11      -0.10 dB   -14.74 dB      5:43 11-Trade Winds (2020 Remaster)
DR10      -0.10 dB   -12.17 dB      1:20 13-This Could Be The Start Of Something
DR10      -0.10 dB   -12.84 dB      4:19 14-Groove Me
DR10      -0.10 dB   -14.50 dB      6:22 15-Nobody Knows You When You're Down and Out
DR11      -0.10 dB   -17.17 dB      5:32 16-Hush-A-Bye
DR13      -0.10 dB   -17.90 dB      9:13 17-Afro Blue
DR10      -0.10 dB   -16.22 dB      3:56 18-It's Way Past Suppertime
DR12      -0.10 dB   -15.55 dB      7:15 19-Frankie and Johnny
DR11      -0.10 dB   -13.99 dB      2:44 20-On the Street Where You Live
DR13      -0.10 dB   -20.16 dB      5:52 21-The House Song
DR9       -0.10 dB   -11.95 dB      3:25 22-Ain't No Mountain High Enough
DR9       -0.10 dB   -13.44 dB      5:20 23-The Song Is Love
DR10      -0.10 dB   -14.78 dB      8:25 24-To Sir With Love
--------------------------------------------------------------------------------

Number of tracks:  23
Official DR value: DR11

Samplerate:        192000 Hz
Channels:          2
Bits per sample:   24
Bitrate:           4574 kbps
Codec:             FLAC
================================================================================

foobar2000 1.6.4 / Dynamic Range Meter 1.1.1
log date: 2021-02-27 20:32:53

--------------------------------------------------------------------------------
Statistics for: 12-All the Way (Live; 2020 Remaster 44.1 kHz)
Number of samples: 22914116
Duration: 8:40 
--------------------------------------------------------------------------------

                 Left              Right

Peak Value:     -3.85 dB   ---     -3.96 dB   
Avg RMS:       -22.39 dB   ---    -22.01 dB   
DR channel:     13.05 dB   ---     13.00 dB   
--------------------------------------------------------------------------------

Official DR Value: DR13

Samplerate:        44100 Hz
Channels:          2
Bits per sample:   24
Bitrate:           1335 kbps
Codec:             FLAC
================================================================================



Create a new paste based on this one


Comments: