[ create a new paste ] login | about

Link: http://codepad.org/WUQ0hJF8    [ raw code | fork ]

Plain Text, pasted on Dec 15:
Exact Audio Copy V1.0 beta 3 from 29. August 2011

EAC extraction logfile from 25. January 2012, 8:37

Hot Chocolate / You Sexy Thing - The Best Of Hot Chocolate

Used drive  : HL-DT-STDVD-RAM GSA-H20N   Adapter: 3  ID: 0

Read mode               : Secure
Utilize accurate stream : Yes
Defeat audio cache      : Yes
Make use of C2 pointers : No

Read offset correction                      : 102
Overread into Lead-In and Lead-Out          : No
Fill up missing offset samples with silence : Yes
Delete leading and trailing silent blocks   : No
Null samples used in CRC calculations       : Yes
Used interface                              : Installed external ASPI interface
Gap handling                                : Appended to previous track

Used output format : Internal WAV Routines
Sample format      : 44.100 Hz; 16 Bit; Stereo


TOC of the extracted CD

     Track |   Start  |  Length  | Start sector | End sector 
    ---------------------------------------------------------
        1  |  0:00.00 |  4:05.47 |         0    |    18421   
        2  |  4:05.47 |  4:31.40 |     18422    |    38786   
        3  |  8:37.12 |  3:53.13 |     38787    |    56274   
        4  | 12:30.25 |  4:23.24 |     56275    |    76023   
        5  | 16:53.49 |  4:58.26 |     76024    |    98399   
        6  | 21:52.00 |  3:51.31 |     98400    |   115755   
        7  | 25:43.31 |  3:47.20 |    115756    |   132800   
        8  | 29:30.51 |  2:51.11 |    132801    |   145636   
        9  | 32:21.62 |  3:34.01 |    145637    |   161687   
       10  | 35:55.63 |  3:52.11 |    161688    |   179098   
       11  | 39:47.74 |  4:00.27 |    179099    |   197125   
       12  | 43:48.26 |  3:01.39 |    197126    |   210739   
       13  | 46:49.65 |  3:28.28 |    210740    |   226367   
       14  | 50:18.18 |  4:21.44 |    226368    |   245986   
       15  | 54:39.62 |  4:18.71 |    245987    |   265407   
       16  | 58:58.58 |  3:55.01 |    265408    |   283033   
       17  | 62:53.59 |  4:28.71 |    283034    |   303204   
       18  | 67:22.55 |  3:37.05 |    303205    |   319484   
       19  | 70:59.60 |  3:49.66 |    319485    |   336725   


Track  1

     Filename C:\rips\Hot Chocolate\You Sexy Thing - The Best Of Hot Chocolate\01 - You Sexy Thing.wav

     Pre-gap length  0:00:02.00

     Peak level 94.4 %
     Extraction speed 1.7 X
     Track quality 100.0 %
     Test CRC E3CD40C5
     Copy CRC E3CD40C5
     Track not present in AccurateRip database
     Copy OK

Track  2

     Filename C:\rips\Hot Chocolate\You Sexy Thing - The Best Of Hot Chocolate\02 - So You Win Again.wav

     Pre-gap length  0:00:01.00

     Peak level 95.5 %
     Extraction speed 1.9 X
     Track quality 100.0 %
     Test CRC B58AF14B
     Copy CRC B58AF14B
     Track not present in AccurateRip database
     Copy OK

Track  3

     Filename C:\rips\Hot Chocolate\You Sexy Thing - The Best Of Hot Chocolate\03 - Emma.wav

     Pre-gap length  0:00:01.00

     Peak level 90.1 %
     Extraction speed 2.0 X
     Track quality 100.0 %
     Test CRC 1D5B91A8
     Copy CRC 1D5B91A8
     Track not present in AccurateRip database
     Copy OK

Track  4

     Filename C:\rips\Hot Chocolate\You Sexy Thing - The Best Of Hot Chocolate\04 - No Doubt About It.wav

     Pre-gap length  0:00:02.00

     Peak level 100.0 %
     Extraction speed 2.2 X
     Track quality 100.0 %
     Test CRC B115F089
     Copy CRC B115F089
     Track not present in AccurateRip database
     Copy OK

Track  5

     Filename C:\rips\Hot Chocolate\You Sexy Thing - The Best Of Hot Chocolate\05 - Brother Louie.wav

     Pre-gap length  0:00:01.00

     Peak level 100.0 %
     Extraction speed 2.4 X
     Track quality 100.0 %
     Test CRC 7ADDEC63
     Copy CRC 7ADDEC63
     Track not present in AccurateRip database
     Copy OK

Track  6

     Filename C:\rips\Hot Chocolate\You Sexy Thing - The Best Of Hot Chocolate\06 - A Child's Prayer.wav

     Pre-gap length  0:00:01.00

     Peak level 100.0 %
     Extraction speed 2.1 X
     Track quality 99.9 %
     Test CRC 4F0D6ADD
     Copy CRC 4F0D6ADD
     Track not present in AccurateRip database
     Copy OK

Track  7

     Filename C:\rips\Hot Chocolate\You Sexy Thing - The Best Of Hot Chocolate\07 - You Could've Been A Lady.wav

     Pre-gap length  0:00:01.00

     Peak level 100.0 %
     Extraction speed 2.4 X
     Track quality 100.0 %
     Test CRC 205B5FB1
     Copy CRC 205B5FB1
     Track not present in AccurateRip database
     Copy OK

Track  8

     Filename C:\rips\Hot Chocolate\You Sexy Thing - The Best Of Hot Chocolate\08 - Cheri Baby.wav

     Pre-gap length  0:00:01.00

     Peak level 100.0 %
     Extraction speed 2.5 X
     Track quality 100.0 %
     Test CRC 4CB20FE0
     Copy CRC 4CB20FE0
     Track not present in AccurateRip database
     Copy OK

Track  9

     Filename C:\rips\Hot Chocolate\You Sexy Thing - The Best Of Hot Chocolate\09 - Disco Queen.wav

     Pre-gap length  0:00:00.72

     Peak level 97.7 %
     Extraction speed 2.6 X
     Track quality 100.0 %
     Test CRC F67D7CE8
     Copy CRC F67D7CE8
     Track not present in AccurateRip database
     Copy OK

Track 10

     Filename C:\rips\Hot Chocolate\You Sexy Thing - The Best Of Hot Chocolate\10 - I'll Put You Together Again.wav

     Pre-gap length  0:00:01.00

     Peak level 100.0 %
     Extraction speed 2.8 X
     Track quality 100.0 %
     Test CRC 19015A50
     Copy CRC 19015A50
     Track not present in AccurateRip database
     Copy OK

Track 11

     Filename C:\rips\Hot Chocolate\You Sexy Thing - The Best Of Hot Chocolate\11 - Every 1's A Winner.wav

     Pre-gap length  0:00:01.00

     Peak level 81.6 %
     Extraction speed 2.5 X
     Track quality 99.9 %
     Test CRC 09DA4D00
     Copy CRC 09DA4D00
     Track not present in AccurateRip database
     Copy OK

Track 12

     Filename C:\rips\Hot Chocolate\You Sexy Thing - The Best Of Hot Chocolate\12 - Don't Stop It Now.wav

     Pre-gap length  0:00:01.00

     Peak level 98.7 %
     Extraction speed 2.9 X
     Track quality 100.0 %
     Test CRC 2CE3EC39
     Copy CRC 2CE3EC39
     Track not present in AccurateRip database
     Copy OK

Track 13

     Filename C:\rips\Hot Chocolate\You Sexy Thing - The Best Of Hot Chocolate\13 - You'll Always Be A Friend.wav

     Pre-gap length  0:00:01.00

     Peak level 100.0 %
     Extraction speed 3.0 X
     Track quality 100.0 %
     Test CRC DEBDE1BC
     Copy CRC DEBDE1BC
     Track not present in AccurateRip database
     Copy OK

Track 14

     Filename C:\rips\Hot Chocolate\You Sexy Thing - The Best Of Hot Chocolate\14 - Man To Man.wav

     Pre-gap length  0:00:01.00

     Peak level 81.3 %
     Extraction speed 2.8 X
     Track quality 99.9 %
     Test CRC 15D81FC2
     Copy CRC 15D81FC2
     Track not present in AccurateRip database
     Copy OK

Track 15

     Filename C:\rips\Hot Chocolate\You Sexy Thing - The Best Of Hot Chocolate\15 - Mindless Boogie.wav

     Pre-gap length  0:00:01.00

     Peak level 100.0 %
     Extraction speed 2.9 X
     Track quality 99.9 %
     Test CRC 81C05C22
     Copy CRC 81C05C22
     Track not present in AccurateRip database
     Copy OK

Track 16

     Filename C:\rips\Hot Chocolate\You Sexy Thing - The Best Of Hot Chocolate\16 - Heaven Is In The Back Seat Of My Cadillac.wav

     Pre-gap length  0:00:01.00

     Peak level 100.0 %
     Extraction speed 2.9 X
     Track quality 99.9 %
     Test CRC 37B37BF6
     Copy CRC 37B37BF6
     Track not present in AccurateRip database
     Copy OK

Track 17

     Filename C:\rips\Hot Chocolate\You Sexy Thing - The Best Of Hot Chocolate\17 - Rumours.wav

     Pre-gap length  0:00:01.00

     Peak level 100.0 %
     Extraction speed 3.4 X
     Track quality 100.0 %
     Test CRC 3C4D67D1
     Copy CRC 3C4D67D1
     Track not present in AccurateRip database
     Copy OK

Track 18

     Filename C:\rips\Hot Chocolate\You Sexy Thing - The Best Of Hot Chocolate\18 - Love Is Life.wav

     Pre-gap length  0:00:00.70

     Peak level 100.0 %
     Extraction speed 3.4 X
     Track quality 100.0 %
     Test CRC DEB80934
     Copy CRC DEB80934
     Track not present in AccurateRip database
     Copy OK

Track 19

     Filename C:\rips\Hot Chocolate\You Sexy Thing - The Best Of Hot Chocolate\19 - I Believe (In Love).wav

     Pre-gap length  0:00:00.74

     Peak level 100.0 %
     Extraction speed 3.5 X
     Track quality 100.0 %
     Test CRC 2979B60D
     Copy CRC 2979B60D
     Track not present in AccurateRip database
     Copy OK


None of the tracks are present in the AccurateRip database

No errors occurred

End of status report

==== Log checksum E60493F7A1C27842F5AF325CFFA06206EA1833980CFC0C50FA64054015A18570 ====



Create a new paste based on this one


Comments: