[ create a new paste ] login | about

Link: http://codepad.org/WV2SkBbN    [ raw code | fork ]

Plain Text, pasted on Mar 14:
Exact Audio Copy V1.1 from 23. June 2015

EAC extraction logfile from 24. February 2016, 22:42

Grateful Dead / Fare Thee Well 7-4-15 (CD2)

Used drive  : PIONEER BD-RW   BDR-XD04   Adapter: 1  ID: 0

Read mode               : Secure
Utilize accurate stream : Yes
Defeat audio cache      : Yes
Make use of C2 pointers : No

Read offset correction                      : 667
Overread into Lead-In and Lead-Out          : No
Fill up missing offset samples with silence : Yes
Delete leading and trailing silent blocks   : No
Null samples used in CRC calculations       : Yes
Used interface                              : Native Win32 interface for Win NT & 2000

Used output format              : User Defined Encoder
Selected bitrate                : 768 kBit/s
Quality                         : High
Add ID3 tag                     : No
Command line compressor         : C:\Program Files (x86)\Exact Audio Copy\Wavpack\wavpack.exe
Additional command line options : -hm -w "Year=%year%" -w "Genre=%genre%" %source% %dest%


TOC of the extracted CD

     Track |   Start  |  Length  | Start sector | End sector 
    ---------------------------------------------------------
        1  |  0:00.00 | 14:46.35 |         0    |    66484   
        2  | 14:46.35 | 10:37.52 |     66485    |   114311   
        3  | 25:24.12 |  9:09.62 |    114312    |   155548   
        4  | 34:33.74 | 10:07.05 |    155549    |   201078   
        5  | 44:41.04 | 10:04.43 |    201079    |   246421   


Range status and errors

Selected range

     Filename D:\_NL+_\_CD\Grateful Dead - Fare Thee Well 7-4-15 (CD2).wav

     Peak level 97.7 %
     Extraction speed 1.8 X
     Range quality 100.0 %
     Test CRC 711CCC83
     Copy CRC 711CCC83
     Copy OK

No errors occurred

 
AccurateRip summary
 
Track  1  not present in database
Track  2  not present in database
Track  3  not present in database
Track  4  not present in database
Track  5  not present in database
 
None of the tracks are present in the AccurateRip database

End of status report

---- CUETools DB Plugin V2.1.6

[CTDB TOCID: llhKwJfTcEzDxB24swhgKlLthW0-] found
Submit result: llhKwJfTcEzDxB24swhgKlLthW0- has been confirmed
Track | CTDB Status
  1   | (20/20) Accurately ripped
  2   | (20/20) Accurately ripped
  3   | (20/20) Accurately ripped
  4   | (20/20) Accurately ripped
  5   | (20/20) Accurately ripped


==== Log checksum AEEAECA7CF04348DB74F318CB48A9274D294B79C0A9F257A1C03467DDA8DE896 ====



Create a new paste based on this one


Comments: